<?xml version="1.0" standalone="no"?>
<!DOCTYPE svg PUBLIC "-//W3C//DTD SVG 1.1//EN" "http://www.w3.org/Graphics/SVG/1.1/DTD/svg11.dtd" >
<svg xmlns="http://www.w3.org/2000/svg" xmlns:xlink="http://www.w3.org/1999/xlink" version="1.1">
<metadata>
Created by FontForge 20170731 at Mon Mar  1 16:07:32 2021
 By Aleksey,,,
Copyright (c) 2004 Linotype Library GmbH, www.linotype.com. All rights reserved. This software may not be reproduced, used, displayed, modified, disclosed or transferred without the express written approval of Linotype Library GmbH. Avenir is a trademark of Heidelberger Druckmaschinen AG, exclusively licensed through Linotype Library GmbH, and may be registered in certain jurisdictions. This typeface is original artwork of Adrian Frutiger. The design may be protected in certain jurisdictions.
</metadata>
<defs>
<font id="AvenirNextLTPro-Bold" horiz-adv-x="614" >
  <font-face 
    font-family="AvenirNext LT Pro Bold"
    font-weight="700"
    font-stretch="normal"
    units-per-em="2048"
    panose-1="2 11 8 4 2 2 2 2 2 4"
    ascent="1548"
    descent="-500"
    x-height="1020"
    cap-height="1450"
    bbox="-397 -512 2478 1972"
    underline-thickness="102"
    underline-position="-307"
    unicode-range="U+000D-FB02"
  />
<missing-glyph horiz-adv-x="1048" 
d="M455 240h114v137h-114v-137zM461 479h94q0 107 12 148q11 38 88 106q75 69 102 123t27 123q0 120 -72 194t-182 74q-115 0 -189 -69.5t-87 -210.5l102 -17q11 100 56 147.5t112 47.5q64 0 110 -50.5t46 -123.5q0 -41 -19.5 -75.5t-82.5 -94.5q-67 -67 -95 -121
q-26 -51 -26 -166zM946 102h-844v1264h844v-1264zM1049 1470h-1049v-1470h1049v1470z" />
    <glyph glyph-name="IJ" unicode="IJ" horiz-adv-x="1714" 
d="M502 0h-352v1450h352v-1450zM1573 496q0 -76 -11 -144.5t-43.5 -142t-83.5 -126.5t-138 -87.5t-201 -34.5q-179 0 -304.5 93.5t-166.5 246.5l309 105q14 -58 52 -92.5t93 -34.5q81 0 111.5 55t30.5 160v956h352v-954z" />
    <glyph glyph-name="ij" unicode="ij" horiz-adv-x="1206" 
d="M496 1346q0 -78 -56.5 -131.5t-136.5 -53.5q-81 0 -136.5 54.5t-55.5 130.5q0 75 55.5 129.5t136.5 54.5q80 0 136.5 -54t56.5 -130zM471 0h-336v1020h336v-1020zM1096 1346q0 -78 -56.5 -131.5t-136.5 -53.5q-81 0 -136.5 54.5t-55.5 130.5q0 75 55.5 129.5t136.5 54.5
q80 0 136.5 -54t56.5 -130zM1071 -27q0 -81 -10.5 -146t-38 -126t-72.5 -102.5t-117.5 -66t-168.5 -24.5q-83 0 -146 17l23 280q31 -10 71 -10q69 0 96 46t27 132v1047h336v-1047z" />
    <glyph glyph-name="napostrophe" unicode="&#x22;n" horiz-adv-x="1445" 
d="M1323 0h-338v557q0 215 -151 215q-85 0 -133 -63t-48 -156v-553h-338v1020h326v-141h4q37 71 120.5 120.5t184.5 49.5q99 0 173.5 -36t116.5 -97t62.5 -132.5t20.5 -152.5v-631zM416 1450l-176 -399h-258l137 399h297z" />
    <glyph glyph-name="fi" unicode="fi" horiz-adv-x="1361" 
d="M1251 1346q0 -77 -56.5 -131t-135.5 -54q-81 0 -137 54.5t-56 130.5q0 75 56 129.5t137 54.5q78 0 135 -54t57 -130zM1227 0h-338v1020h338v-1020zM786 1567l-22 -267q-47 15 -92 15q-150 0 -150 -193v-102h228v-252h-228v-768h-336v768h-186v252h186v98q0 79 12.5 145.5
t44 127.5t80.5 103.5t126 67.5t176 25q97 0 161 -20z" />
    <glyph glyph-name="fl" unicode="fl" horiz-adv-x="1363" 
d="M1229 0h-340v1548h340v-1548zM786 1567l-22 -267q-47 15 -92 15q-150 0 -150 -193v-102h228v-252h-228v-768h-336v768h-186v252h186v98q0 79 12.5 145.5t44 127.5t80.5 103.5t126 67.5t176 25q97 0 161 -20z" />
    <glyph glyph-name=".notdef" horiz-adv-x="1048" 
d="M455 240h114v137h-114v-137zM461 479h94q0 107 12 148q11 38 88 106q75 69 102 123t27 123q0 120 -72 194t-182 74q-115 0 -189 -69.5t-87 -210.5l102 -17q11 100 56 147.5t112 47.5q64 0 110 -50.5t46 -123.5q0 -41 -19.5 -75.5t-82.5 -94.5q-67 -67 -95 -121
q-26 -51 -26 -166zM946 102h-844v1264h844v-1264zM1049 1470h-1049v-1470h1049v1470z" />
    <glyph glyph-name=".null" horiz-adv-x="1024" 
 />
    <glyph glyph-name=".null" horiz-adv-x="1024" 
 />
    <glyph glyph-name="nonmarkingreturn" horiz-adv-x="682" 
 />
    <glyph glyph-name="CR" unicode="&#xd;" horiz-adv-x="1024" 
 />
    <glyph glyph-name="space" unicode=" " horiz-adv-x="512" 
 />
    <glyph glyph-name="exclam" unicode="!" horiz-adv-x="731" 
d="M537 485h-344v965h344v-965zM565 174q0 -82 -58.5 -138t-141.5 -56q-81 0 -140 55.5t-59 136.5q0 80 58 137.5t141 57.5t141.5 -56.5t58.5 -136.5z" />
    <glyph glyph-name="quotedbl" unicode="&#x22;" horiz-adv-x="1019" 
d="M842 895h-267v555h267v-555zM444 895h-268v555h268v-555z" />
    <glyph glyph-name="numbersign" unicode="#" horiz-adv-x="1234" 
d="M1141 827h-203l-29 -204h174v-213h-200l-62 -410h-225l59 410h-161l-60 -410h-225l59 410h-174v213h203l31 204h-174v213h200l60 410h227l-59 -410h159l60 410h225l-57 -410h172v-213zM713 827h-162l-27 -204h160z" />
    <glyph glyph-name="dollar" unicode="$" horiz-adv-x="1323" 
d="M737 1610v-140q122 -3 245 -42.5t214 -112.5q-102 -117 -199 -223q-50 50 -121.5 79t-138.5 31v-328q55 -16 93 -29t90.5 -35.5t89 -45.5t75.5 -57.5t62.5 -73t39 -91.5t15.5 -114q0 -87 -26 -160.5t-71 -124.5t-106 -87.5t-129 -55t-141 -20.5v-150h-151v150
q-138 5 -273.5 53t-232.5 135q145 150 215 225q55 -59 139 -99t152 -42v358q-80 21 -138.5 42.5t-120 56.5t-100 78t-63.5 107t-25 144q0 96 41 178t107.5 134.5t146.5 83t162 34.5v142h149zM588 909v297q-61 -7 -102.5 -44t-41.5 -101q0 -113 144 -152zM729 573v-323
q69 3 109.5 46t40.5 114q0 66 -39 103t-111 60z" />
    <glyph glyph-name="percent" unicode="%" horiz-adv-x="1865" 
d="M1821 362q0 -161 -114 -274t-275 -113q-162 0 -276 113t-114 274t114.5 274.5t275.5 113.5t275 -113.5t114 -274.5zM1591 362q0 66 -47 113t-112 47q-66 0 -113 -47t-47 -113t47 -111.5t113 -45.5q65 0 112 46t47 111zM838 1087q0 -160 -114 -273.5t-275 -113.5
t-275.5 113.5t-114.5 273.5q0 162 114 275t276 113t275.5 -113t113.5 -275zM608 1087q0 66 -46.5 113t-112.5 47t-113 -47t-47 -113t47 -111.5t113 -45.5t112.5 45.5t46.5 111.5zM1460 1423l-854 -1493l-182 90l846 1496z" />
    <glyph glyph-name="ampersand" unicode="&#x26;" horiz-adv-x="1599" 
d="M1597 0h-423l-138 141q-160 -170 -424 -170q-81 0 -155.5 16.5t-141.5 51t-116 84.5t-78 122t-29 158q0 143 84.5 243t218.5 159q-149 146 -149 315q0 94 40 167.5t106 116t144 64t162 21.5q68 0 131 -13.5t120 -43t99.5 -72t67.5 -104.5t25 -136q0 -234 -291 -379
l182 -186l146 223h372l-313 -420zM840 1110q0 57 -38 95t-100 38q-60 0 -99.5 -38t-39.5 -95q0 -99 109 -188q75 30 121.5 78t46.5 110zM838 346l-256 266q-71 -29 -112.5 -74t-41.5 -120q0 -82 60 -132t137 -50q133 0 213 110z" />
    <glyph glyph-name="quotesingle" unicode="'" horiz-adv-x="620" 
d="M442 895h-266v555h266v-555z" />
    <glyph glyph-name="parenleft" unicode="(" horiz-adv-x="700" 
d="M590 -227l-230 -113q-145 200 -223 440t-78 490t78 490t223 440l230 -113q-130 -178 -198 -386.5t-68 -430.5t68 -430.5t198 -386.5z" />
    <glyph glyph-name="parenright" unicode=")" horiz-adv-x="700" 
d="M641 590q0 -250 -78 -490t-223 -440l-229 113q130 178 198 386.5t68 430.5t-68 430.5t-198 386.5l229 113q145 -200 223 -440t78 -490z" />
    <glyph glyph-name="asterisk" unicode="*" horiz-adv-x="1001" 
d="M944 1061l-262 -82l166 -219l-184 -129l-166 223l-162 -215l-180 129l166 213l-265 88l72 205l260 -90v266h225v-266l260 82z" />
    <glyph glyph-name="plus" unicode="+" horiz-adv-x="1363" 
d="M1251 492h-434v-429h-266v429h-436v258h434v428h266v-428h436v-258z" />
    <glyph glyph-name="comma" unicode="," 
d="M516 328l-199 -582h-276l154 582h321z" />
    <glyph glyph-name="hyphen" unicode="-" horiz-adv-x="667" 
d="M594 403h-520v267h520v-267z" />
    <glyph glyph-name="period" unicode="." 
d="M514 180q0 -84 -60.5 -142t-144.5 -58q-86 0 -147.5 57t-61.5 141q0 83 61.5 143t147.5 60q84 0 144.5 -58.5t60.5 -142.5z" />
    <glyph glyph-name="slash" unicode="/" horiz-adv-x="849" 
d="M850 1481l-633 -1587l-231 75l632 1592z" />
    <glyph glyph-name="zero" unicode="0" horiz-adv-x="1323" 
d="M1229 729q0 -127 -19 -238.5t-62 -209.5t-107.5 -168.5t-160.5 -111t-216 -40.5t-217 40.5t-162 111t-108.5 168.5t-63 209.5t-19.5 238.5q0 126 19.5 236.5t63 208t108.5 166.5t162 109t217 40t216 -40t160.5 -109t107.5 -166.5t62 -208t19 -236.5zM877 729
q0 79 -8.5 152t-30 149t-66 122t-108.5 46q-52 0 -92 -32t-63.5 -80t-38 -113.5t-19.5 -124t-5 -119.5q0 -62 5 -121t19.5 -125t38 -114.5t63.5 -80.5t92 -32q64 0 108.5 46t66 122.5t30 150t8.5 154.5z" />
    <glyph glyph-name="one" unicode="1" horiz-adv-x="1323" 
d="M924 0h-344v1065l-271 -209l-178 244l477 350h316v-1450z" />
    <glyph glyph-name="two" unicode="2" horiz-adv-x="1323" 
d="M1188 0h-1049v287l566 512q118 111 118 223q0 77 -49.5 125.5t-130.5 48.5q-85 0 -139.5 -60t-65.5 -159l-329 45q16 143 94.5 250t197.5 162t261 55q81 0 156.5 -17t142.5 -53t117 -87.5t79 -125.5t29 -162q0 -60 -14.5 -115t-35.5 -96.5t-58 -86.5t-67.5 -75t-78.5 -73
l-336 -299h592v-299z" />
    <glyph glyph-name="three" unicode="3" horiz-adv-x="1323" 
d="M1194 422q0 -92 -31.5 -169.5t-84.5 -130.5t-123.5 -90t-148.5 -54t-159 -17q-101 0 -191.5 22.5t-168 68t-135.5 120.5t-86 174l319 84q22 -77 87 -128.5t159 -51.5q85 0 148 45.5t63 138.5q0 53 -25.5 91.5t-69 59.5t-93.5 30.5t-107 9.5h-92v252h100q254 0 254 172
q0 74 -53.5 116.5t-128.5 42.5q-74 0 -128 -44t-71 -117l-319 73q51 176 200.5 272.5t339.5 96.5q98 0 188 -25.5t162.5 -74.5t116 -129t43.5 -181q0 -117 -68 -202t-176 -113v-6q124 -29 201.5 -122t77.5 -214z" />
    <glyph glyph-name="four" unicode="4" horiz-adv-x="1323" 
d="M1253 283h-198v-283h-322v283h-682v288l590 879h412v-889h200v-278zM735 561v537h-6l-344 -537h350z" />
    <glyph glyph-name="five" unicode="5" horiz-adv-x="1323" 
d="M1192 479q0 -127 -47 -228.5t-126 -163.5t-178 -94t-208 -32q-200 0 -350 99.5t-201 269.5l313 96q24 -77 87.5 -125.5t146.5 -48.5q93 0 155 55.5t62 155.5q0 62 -26 107t-70.5 68.5t-94 34.5t-106.5 11q-77 0 -177.5 -17.5t-176.5 -45.5l34 829h889v-295h-583l-13 -229
q60 14 146 14q148 0 265 -50.5t188 -156.5t71 -254z" />
    <glyph glyph-name="six" unicode="6" horiz-adv-x="1323" 
d="M1231 487q0 -121 -45.5 -221t-123.5 -166t-181.5 -102.5t-221.5 -36.5q-158 0 -287.5 62.5t-206.5 182t-77 273.5q0 120 41 225t121 224l350 522h416l-357 -496l-6 -10q46 17 103 17q127 0 235 -58.5t174 -168t66 -247.5zM887 479q0 99 -62.5 163.5t-162.5 64.5
q-101 0 -165.5 -64.5t-64.5 -165.5q0 -96 63.5 -162.5t163.5 -66.5q101 0 164.5 64t63.5 167z" />
    <glyph glyph-name="seven" unicode="7" horiz-adv-x="1323" 
d="M1182 1176l-555 -1176h-400l588 1155h-686v295h1053v-274z" />
    <glyph glyph-name="eight" unicode="8" horiz-adv-x="1323" 
d="M1206 414q0 -111 -44.5 -199t-120.5 -142.5t-172.5 -83t-206.5 -28.5t-206.5 28t-173 82.5t-121 142t-44.5 198.5q0 126 74 218t186 128v4q-99 37 -160 117.5t-61 195.5q0 129 71.5 225t184.5 142.5t250 46.5q136 0 249 -45t184.5 -139.5t71.5 -223.5
q0 -117 -60.5 -200.5t-160.5 -116.5v-6q112 -32 186 -126t74 -218zM836 1057q0 70 -51 118t-123 48q-76 0 -124.5 -47.5t-48.5 -118.5t48 -121.5t125 -50.5q74 0 124 51t50 121zM862 426q0 84 -56.5 140.5t-143.5 56.5q-89 0 -146 -56t-57 -141q0 -87 56.5 -140t146.5 -53
t145 53t55 140z" />
    <glyph glyph-name="nine" unicode="9" horiz-adv-x="1323" 
d="M1233 971q0 -120 -41 -225t-121 -224l-350 -522h-416l361 500l4 6q-49 -17 -103 -17q-127 0 -235.5 58.5t-175 168.5t-66.5 247q0 121 45.5 221t123.5 166t181.5 102.5t221.5 36.5q159 0 288 -62.5t206 -181.5t77 -274zM889 975q0 97 -62.5 164t-162.5 67
q-102 0 -166 -65t-64 -168q0 -99 62.5 -163.5t162.5 -64.5q101 0 165.5 64.5t64.5 165.5z" />
    <glyph glyph-name="colon" unicode=":" horiz-adv-x="679" 
d="M541 840q0 -81 -59.5 -139t-139.5 -58q-83 0 -143 56t-60 137t59.5 138.5t143.5 57.5q80 0 139.5 -56.5t59.5 -135.5zM541 182q0 -81 -59 -137.5t-140 -56.5q-83 0 -143 55.5t-60 136.5q0 82 60 139.5t143 57.5q80 0 139.5 -57t59.5 -138z" />
    <glyph glyph-name="semicolon" unicode=";" horiz-adv-x="679" 
d="M541 840q0 -81 -58.5 -138t-140.5 -57q-81 0 -141 56t-60 137q0 82 59 139t142 57q81 0 140 -56.5t59 -137.5zM543 328l-199 -582h-283l154 582h328z" />
    <glyph glyph-name="less" unicode="&#x3c;" horiz-adv-x="1363" 
d="M1202 76l-1040 438v211l1040 438v-278l-627 -269l627 -260v-280z" />
    <glyph glyph-name="equal" unicode="=" horiz-adv-x="1363" 
d="M1225 686h-1086v252h1086v-252zM1225 307h-1086v252h1086v-252z" />
    <glyph glyph-name="greater" unicode="&#x3e;" horiz-adv-x="1363" 
d="M1202 514l-1040 -438v280l626 260l-626 269v278l1040 -438v-211z" />
    <glyph glyph-name="question" unicode="?" horiz-adv-x="1118" 
d="M1079 1079q0 -66 -14.5 -117.5t-48.5 -96.5t-69.5 -78t-96.5 -80q-67 -53 -89 -90t-22 -101v-53h-319v78q0 69 20 123t51.5 93t90.5 91l67 63q41 36 62.5 69.5t21.5 76.5q0 65 -40 104t-109 39q-80 0 -126.5 -55.5t-49.5 -134.5l-326 34q11 109 56 194.5t114.5 140
t157 82.5t186.5 28q94 0 178.5 -24.5t154 -73t110 -129t40.5 -183.5zM780 174q0 -82 -57.5 -138t-140.5 -56t-142 55.5t-59 136.5q0 80 59 137.5t142 57.5q82 0 140 -56.5t58 -136.5z" />
    <glyph glyph-name="at" unicode="@" horiz-adv-x="1638" 
d="M1585 821q0 -229 -118 -361t-302 -132q-81 0 -133.5 36t-60.5 95h-8q-32 -54 -95.5 -92.5t-148.5 -38.5q-136 0 -215.5 95.5t-79.5 250.5q0 117 47.5 221.5t139 172t206.5 67.5q75 0 128 -32t67 -79h2l14 70h221l-63 -322q-27 -127 -27 -170q0 -74 60 -74
q66 0 111.5 74.5t45.5 210.5q0 233 -145 360t-385 127q-248 0 -404.5 -163.5t-156.5 -413.5q0 -258 163 -412.5t424 -154.5q279 0 471 176l130 -144q-231 -225 -623 -225q-172 0 -319.5 56.5t-251 156.5t-162 241.5t-58.5 305.5q0 160 62.5 302.5t169 243.5t251.5 159.5
t306 58.5q117 0 224.5 -26.5t201 -81.5t163 -133t109 -187t39.5 -238zM952 776q0 160 -114 160q-73 0 -121.5 -82.5t-48.5 -179.5q0 -60 26 -102t86 -42q57 0 97.5 41.5t57.5 95t17 109.5z" />
    <glyph glyph-name="A" unicode="A" horiz-adv-x="1492" 
d="M1522 0h-389l-113 285h-561l-107 -285h-381l609 1450h340zM924 565l-181 498l-184 -498h365z" />
    <glyph glyph-name="B" unicode="B" horiz-adv-x="1361" 
d="M1280 422q0 -91 -31.5 -164.5t-83.5 -120.5t-124.5 -78.5t-150 -45t-163.5 -13.5h-577v1450h577q72 0 138 -10.5t132.5 -37t115 -67.5t78.5 -107t30 -151q0 -116 -64 -196t-174 -117v-4q130 -23 213.5 -112t83.5 -226zM883 1030q0 141 -224 141h-172v-299h189
q99 0 153 41t54 117zM930 455q0 86 -64 122.5t-184 36.5h-195v-331h197q46 0 86 7.5t78 25t60 53.5t22 86z" />
    <glyph glyph-name="C" unicode="C" horiz-adv-x="1425" 
d="M1425 201q-98 -114 -241.5 -177t-321.5 -63q-166 0 -310 56t-247.5 155.5t-163 243t-59.5 311.5q0 227 104.5 402t282.5 267.5t399 92.5q158 0 306.5 -56t236.5 -157l-237 -238q-48 65 -127 99t-166 34q-182 0 -300 -125.5t-118 -318.5q0 -198 114.5 -321t296.5 -123
q100 0 180.5 40t127.5 107z" />
    <glyph glyph-name="D" unicode="D" horiz-adv-x="1585" 
d="M1503 729q0 -148 -46.5 -271t-124.5 -206.5t-183.5 -141t-220.5 -84t-238 -26.5h-540v1450h524q130 0 245 -21.5t224 -74.5t187.5 -133.5t125.5 -206.5t47 -285zM1139 729q0 95 -26.5 169t-70 121t-105.5 77t-128.5 42.5t-142.5 12.5h-174v-848h165q78 0 146.5 13t131 44
t107 78.5t71 122t26.5 168.5z" />
    <glyph glyph-name="E" unicode="E" horiz-adv-x="1243" 
d="M1161 0h-1011v1450h974v-297h-637v-272h603v-281h-603v-301h674v-299z" />
    <glyph glyph-name="F" unicode="F" horiz-adv-x="1179" 
d="M1104 1151h-608v-299h561v-289h-561v-563h-346v1450h954v-299z" />
    <glyph glyph-name="G" unicode="G" horiz-adv-x="1574" 
d="M1438 88q-238 -125 -559 -125q-230 0 -411 95t-283.5 269.5t-102.5 399.5q0 227 104.5 402t282.5 267.5t399 92.5q169 0 318 -52t241 -141l-221 -252q-53 61 -138 98.5t-187 37.5q-184 0 -305 -129t-121 -324q0 -205 116.5 -331t325.5 -126q131 0 219 39v264h-276v283
h598v-768z" />
    <glyph glyph-name="H" unicode="H" horiz-adv-x="1564" 
d="M1415 0h-350v606h-565v-606h-350v1450h350v-549h565v549h350v-1450z" />
    <glyph glyph-name="I" unicode="I" horiz-adv-x="651" 
d="M502 0h-352v1450h352v-1450z" />
    <glyph glyph-name="J" unicode="J" horiz-adv-x="1083" 
d="M942 496q0 -76 -11 -144.5t-43.5 -142t-83.5 -126.5t-138 -87.5t-201 -34.5q-179 0 -304.5 93.5t-166.5 246.5l309 105q14 -58 52.5 -92.5t93.5 -34.5q81 0 111 55t30 160v956h352v-954z" />
    <glyph glyph-name="K" unicode="K" horiz-adv-x="1456" 
d="M1493 0h-457l-538 668h-4v-668h-344v1450h344v-590h6l518 590h438l-625 -668z" />
    <glyph glyph-name="L" unicode="L" horiz-adv-x="1077" 
d="M1063 0h-913v1450h352v-1145h561v-305z" />
    <glyph glyph-name="M" unicode="M" horiz-adv-x="1955" 
d="M1806 0h-342l9 1026h-7l-376 -1026h-246l-367 1026h-6l8 -1026h-329v1450h497l330 -930h8l315 930h506v-1450z" />
    <glyph glyph-name="N" unicode="N" horiz-adv-x="1617" 
d="M1468 0h-397l-584 948h-6l8 -948h-339v1450h399l581 -946h7l-9 946h340v-1450z" />
    <glyph glyph-name="O" unicode="O" horiz-adv-x="1742" 
d="M1661 731q0 -226 -102.5 -402t-282.5 -272t-406 -96q-135 0 -256 35.5t-217.5 103.5t-167.5 161.5t-109 213.5t-38 256q0 228 102.5 401.5t281 265t404.5 91.5q227 0 406 -91.5t282 -265t103 -401.5zM1286 731q0 192 -116.5 317.5t-299.5 125.5t-298 -125.5t-115 -317.5
q0 -197 115.5 -323.5t297.5 -126.5q183 0 299.5 126.5t116.5 323.5z" />
    <glyph glyph-name="P" unicode="P" horiz-adv-x="1310" 
d="M1249 1004q0 -122 -46.5 -212.5t-128.5 -142.5t-181.5 -77t-218.5 -25h-174v-547h-350v1450h532q98 0 181 -14.5t155.5 -47.5t122.5 -83.5t79 -127t29 -173.5zM899 1001q0 50 -20 84t-57 51t-77 24t-92 7h-153v-342h147q71 0 124.5 14.5t90.5 55.5t37 106z" />
    <glyph glyph-name="Q" unicode="Q" horiz-adv-x="1755" 
d="M1731 0h-883q-173 0 -315.5 50t-244.5 143t-158 234t-56 316q0 216 102.5 387t281.5 265t402 94t401 -93t278.5 -262t100.5 -384q0 -154 -63.5 -278.5t-151.5 -192.5v-7l306 7v-279zM1270 739q0 190 -114.5 311t-295.5 121q-176 0 -292.5 -122t-116.5 -310
q0 -195 113.5 -317.5t293.5 -122.5q179 0 295.5 123t116.5 317z" />
    <glyph glyph-name="R" unicode="R" horiz-adv-x="1357" 
d="M1335 0h-409l-314 575h-118v-575h-344v1450h552q88 0 165.5 -13.5t150 -45.5t124.5 -81t83.5 -125.5t31.5 -172.5q0 -144 -80 -246t-221 -145zM911 1006q0 161 -233 161h-186v-338h165q48 0 88.5 7.5t80 25.5t62.5 55t23 89z" />
    <glyph glyph-name="S" unicode="S" horiz-adv-x="1210" 
d="M1139 1309l-224 -236q-43 56 -116 90.5t-142 34.5q-51 0 -93.5 -11.5t-75.5 -45.5t-33 -88q0 -28 11 -50.5t27 -38t48.5 -31t60 -25.5t76.5 -25q55 -18 88 -29.5t86.5 -34t86.5 -44t73 -56t62.5 -72t38 -89.5t15.5 -112q0 -121 -46 -215.5t-124.5 -152t-176 -86.5
t-208.5 -29q-157 0 -302.5 55t-239.5 154l229 234q53 -67 140.5 -110.5t172.5 -43.5q88 0 144.5 38t56.5 120q0 76 -80 122q-50 29 -213 81l-1 1h-1h-1l-1 1h-1h-1l-1 1h-1q-51 16 -92 33.5t-85.5 42t-77.5 56.5t-60.5 72.5t-41.5 94t-14 117.5q0 93 32.5 170.5t87.5 129
t128 87.5t152 52t162 16q127 0 254.5 -46.5t220.5 -131.5z" />
    <glyph glyph-name="T" unicode="T" horiz-adv-x="1189" 
d="M1180 1151h-410v-1151h-350v1151h-410v299h1170v-299z" />
    <glyph glyph-name="U" unicode="U" horiz-adv-x="1511" 
d="M1378 547q0 -262 -170.5 -424t-453.5 -162t-451 161.5t-168 424.5v903h348v-875q0 -61 15.5 -113t47 -94.5t85.5 -67t125 -24.5q72 0 126 24.5t85 67t46 94.5t15 113v875h350v-903z" />
    <glyph glyph-name="V" unicode="V" horiz-adv-x="1396" 
d="M1427 1450l-559 -1450h-350l-549 1450h393l336 -1028h9l333 1028h387z" />
    <glyph glyph-name="W" unicode="W" horiz-adv-x="2099" 
d="M2099 1450l-413 -1450h-347l-286 981h-6l-287 -981h-348l-412 1450h377l229 -965h6l258 965h365l260 -965h6l234 965h364z" />
    <glyph glyph-name="X" unicode="X" horiz-adv-x="1439" 
d="M1456 0h-432l-317 512l-306 -512h-417l508 766l-467 684h421l271 -451l266 451h408l-459 -684z" />
    <glyph glyph-name="Y" unicode="Y" horiz-adv-x="1370" 
d="M1411 1450l-557 -836v-614h-350v614l-545 836h424l309 -537l309 537h410z" />
    <glyph glyph-name="Z" unicode="Z" horiz-adv-x="1300" 
d="M1223 0h-1143v303l690 850h-674v297h1112v-281l-706 -866h721v-303z" />
    <glyph glyph-name="bracketleft" unicode="[" horiz-adv-x="700" 
d="M551 -319h-442v1818h442v-209h-182v-1401h182v-208z" />
    <glyph glyph-name="backslash" unicode="\" horiz-adv-x="849" 
d="M864 -31l-231 -75l-631 1587l231 80z" />
    <glyph glyph-name="bracketright" unicode="]" horiz-adv-x="700" 
d="M592 -319h-442v208h182v1401h-182v209h442v-1818z" />
    <glyph glyph-name="asciicircum" unicode="^" horiz-adv-x="1413" 
d="M1262 702h-304l-253 437l-252 -437h-303l436 748h241z" />
    <glyph glyph-name="underscore" unicode="_" horiz-adv-x="1024" 
d="M1024 -336h-1024v182h1024v-182z" />
    <glyph glyph-name="grave" unicode="`" 
d="M473 1171h-254l-299 295h340z" />
    <glyph glyph-name="a" unicode="a" horiz-adv-x="1159" 
d="M733 410v34h-43q-63 0 -112 -5t-98 -18.5t-76 -43t-27 -72.5q0 -54 43 -79t102 -25q100 0 155.5 56.5t55.5 152.5zM287 698l-170 183q88 83 207.5 127.5t246.5 44.5q253 0 361 -128t108 -411v-514h-307v109h-6q-38 -62 -117.5 -98t-171.5 -36q-65 0 -127 17t-118 52.5
t-90.5 100t-34.5 150.5q0 344 655 344v16q0 72 -51 110t-133 38q-69 0 -136 -29.5t-116 -75.5z" />
    <glyph glyph-name="b" unicode="b" horiz-adv-x="1349" 
d="M1268 514q0 -107 -33.5 -205t-94 -173.5t-153.5 -120t-205 -44.5q-103 0 -193.5 43.5t-139.5 118.5h-5v-133h-309v1548h336v-637h4q49 59 128 98.5t183 39.5q108 0 200 -43.5t153 -117t95 -170.5t34 -204zM944 514q0 106 -64 183t-178 77q-109 0 -177 -79.5t-68 -182.5
q0 -105 68 -183.5t177 -78.5q77 0 133 39t82.5 97.5t26.5 127.5z" />
    <glyph glyph-name="c" unicode="c" horiz-adv-x="1030" 
d="M1028 915l-194 -225q-28 37 -78 59.5t-101 22.5q-103 0 -169 -76.5t-66 -185.5t66 -184.5t173 -75.5q53 0 103 20t80 56l186 -228q-63 -61 -163.5 -96t-213.5 -35q-162 0 -290.5 64.5t-204.5 189t-76 289.5q0 162 76.5 287t205 190.5t287.5 65.5q109 0 214 -38.5
t165 -99.5z" />
    <glyph glyph-name="d" unicode="d" horiz-adv-x="1347" 
d="M1212 0h-309v133h-4q-49 -75 -140 -118.5t-194 -43.5q-148 0 -260.5 77t-168.5 199t-56 267q0 107 34 204t94.5 170.5t152.5 117t200 43.5q104 0 183 -39.5t128 -98.5h5v637h335v-1548zM891 512q0 103 -68.5 182.5t-177.5 79.5q-114 0 -178 -77t-64 -183
q0 -69 26.5 -127.5t82.5 -97.5t133 -39q109 0 177.5 78.5t68.5 183.5z" />
    <glyph glyph-name="e" unicode="e" horiz-adv-x="1220" 
d="M401 627h433q0 84 -52.5 139t-148.5 55q-95 0 -160.5 -57t-71.5 -137zM1143 498q0 -55 -2 -80h-740q7 -83 79 -138t165 -55q146 0 225 107l234 -148q-73 -105 -191 -161t-272 -56q-156 0 -281.5 62t-202.5 186t-77 291q0 163 73.5 289t198 192t279.5 66q229 0 370.5 -149
t141.5 -406z" />
    <glyph glyph-name="f" unicode="f" horiz-adv-x="745" 
d="M786 1567l-22 -267q-47 15 -92 15q-150 0 -150 -193v-102h228v-252h-228v-768h-336v768h-186v252h186v98q0 79 12.5 145.5t44 127.5t80.5 103.5t126 67.5t176 25q97 0 161 -20z" />
    <glyph glyph-name="g" unicode="g" horiz-adv-x="1347" 
d="M1212 96q0 -291 -160 -439.5t-440 -148.5q-137 0 -280.5 42.5t-243.5 117.5l168 240q72 -63 160.5 -96t177.5 -33q143 0 216 76t73 208v62h-6q-48 -63 -129 -99t-181 -36q-113 0 -206 42t-154 114t-94 166.5t-33 201.5q0 144 56 264t168.5 195.5t260.5 75.5
q100 0 187 -40.5t139 -119.5h4v131h317v-924zM893 516q0 108 -68.5 183t-179.5 75q-110 0 -174.5 -74t-64.5 -184q0 -107 65 -183.5t174 -76.5q112 0 180 76t68 184z" />
    <glyph glyph-name="h" unicode="h" horiz-adv-x="1263" 
d="M1141 0h-338v553q0 215 -150 215q-85 0 -133.5 -61.5t-48.5 -155.5v-551h-336v1548h336v-657h4q36 66 114.5 112t178.5 46q99 0 174 -36t117 -97t62 -132.5t20 -152.5v-631z" />
    <glyph glyph-name="i" unicode="i" horiz-adv-x="606" 
d="M496 1346q0 -78 -56.5 -131.5t-136.5 -53.5q-81 0 -136.5 54.5t-55.5 130.5q0 75 55.5 129.5t136.5 54.5q80 0 136.5 -54t56.5 -130zM471 0h-336v1020h336v-1020z" />
    <glyph glyph-name="j" unicode="j" horiz-adv-x="612" 
d="M502 1346q0 -78 -56.5 -131.5t-136.5 -53.5q-81 0 -136.5 54.5t-55.5 130.5q0 75 55.5 129.5t136.5 54.5q80 0 136.5 -54t56.5 -130zM477 -27q0 -81 -10.5 -146t-38 -126t-72.5 -102.5t-117.5 -66t-168.5 -24.5q-83 0 -146 17l23 280q31 -10 71 -10q69 0 96 46t27 132
v1047h336v-1047z" />
    <glyph glyph-name="k" unicode="k" horiz-adv-x="1218" 
d="M817 559l410 -559h-416l-334 489h-6v-489h-338v1548h338v-942h6l326 414h407z" />
    <glyph glyph-name="l" unicode="l" horiz-adv-x="610" 
d="M475 0h-340v1548h340v-1548z" />
    <glyph glyph-name="m" unicode="m" horiz-adv-x="1892" 
d="M1769 0h-335v557q0 100 -32 157.5t-114 57.5t-126 -64t-44 -157v-551h-336v582q0 90 -36 140t-109 50q-77 0 -122.5 -62t-45.5 -157v-553h-338v1020h326v-141h4q39 72 118 121t187 49q217 0 307 -175q112 175 326 175q99 0 173.5 -37.5t115.5 -100t61 -133t20 -147.5
v-631z" />
    <glyph glyph-name="n" unicode="n" horiz-adv-x="1261" 
d="M1139 0h-338v557q0 215 -152 215q-85 0 -132.5 -63t-47.5 -156v-553h-338v1020h326v-141h4q37 71 120.5 120.5t184.5 49.5q99 0 173.5 -36t116.5 -97t62.5 -132.5t20.5 -152.5v-631z" />
    <glyph glyph-name="o" unicode="o" horiz-adv-x="1294" 
d="M1212 514q0 -162 -77.5 -288.5t-206 -192.5t-283.5 -66q-154 0 -282 66t-205.5 192.5t-77.5 288.5q0 122 45 224.5t122.5 170.5t180 106t217.5 38q116 0 219 -38t180.5 -106t122.5 -170.5t45 -224.5zM889 514q0 105 -65.5 182.5t-178.5 77.5q-112 0 -175.5 -77
t-63.5 -183t64.5 -185t176.5 -79t177 79t65 185z" />
    <glyph glyph-name="p" unicode="p" horiz-adv-x="1345" 
d="M1266 514q0 -107 -33.5 -205t-94 -173.5t-153.5 -120t-205 -44.5q-94 0 -178 38t-131 104h-4v-605h-336v1512h320v-125h6q50 67 134.5 110.5t190.5 43.5q108 0 200 -43.5t153.5 -117t96 -170.5t34.5 -204zM940 514q0 106 -63.5 183t-176.5 77q-109 0 -177 -79.5
t-68 -182.5q0 -105 68 -183.5t177 -78.5q113 0 176.5 78t63.5 186z" />
    <glyph glyph-name="q" unicode="q" horiz-adv-x="1345" 
d="M1212 -492h-333v605h-5q-49 -66 -132 -104t-177 -38q-112 0 -205.5 44.5t-153.5 120t-93 173t-33 205.5q0 107 34 204t94.5 170.5t152.5 117t200 43.5q107 0 192.5 -43.5t135.5 -110.5h6v125h317v-1512zM891 512q0 103 -68.5 182.5t-177.5 79.5q-114 0 -178 -77t-64 -183
q0 -69 26.5 -127.5t82.5 -97.5t133 -39q109 0 177.5 78.5t68.5 183.5z" />
    <glyph glyph-name="r" unicode="r" horiz-adv-x="811" 
d="M807 1040l-14 -295q-43 11 -86 11q-64 0 -113 -24t-75 -61t-39 -74.5t-13 -72.5v-524h-336v1020h324v-148h4q40 80 112.5 128.5t163.5 48.5q48 0 72 -9z" />
    <glyph glyph-name="s" unicode="s" horiz-adv-x="966" 
d="M915 909l-184 -190q-96 92 -213 92q-53 0 -90 -20.5t-37 -61.5q0 -40 39 -59t148 -43q325 -73 325 -312q0 -93 -38 -162.5t-102.5 -108.5t-138.5 -58t-157 -19q-127 0 -246.5 41.5t-197.5 116.5l188 199q46 -51 112.5 -83t137.5 -32q48 0 84.5 21.5t36.5 66.5
q0 44 -44 67t-159 50q-60 14 -107 34t-93 53.5t-71.5 87t-25.5 122.5q0 87 38.5 155.5t101 107.5t135 59t149.5 20q117 0 226.5 -37.5t182.5 -106.5z" />
    <glyph glyph-name="t" unicode="t" horiz-adv-x="761" 
d="M735 768h-239v-389q0 -73 28.5 -108t98.5 -35q58 0 98 16l4 -246q-87 -31 -195 -31q-194 0 -278 94.5t-84 268.5v430h-164v252h162v268h330v-268h239v-252z" />
    <glyph glyph-name="u" unicode="u" horiz-adv-x="1257" 
d="M1126 0h-323v141h-4q-37 -71 -120.5 -120.5t-186.5 -49.5q-99 0 -173 36t-116 97t-62 132.5t-20 152.5v631h338v-553q0 -47 6.5 -83t22.5 -68t47 -49t75 -17q84 0 132.5 63.5t48.5 155.5v551h335v-1020z" />
    <glyph glyph-name="v" unicode="v" horiz-adv-x="1161" 
d="M1163 1020l-401 -1020h-363l-401 1020h371l215 -662h6l215 662h358z" />
    <glyph glyph-name="w" unicode="w" horiz-adv-x="1783" 
d="M1784 1020l-354 -1020h-338l-201 635h-4l-197 -635h-338l-352 1020h362l177 -645h6l182 645h338l188 -645h4l179 645h348z" />
    <glyph glyph-name="x" unicode="x" horiz-adv-x="1216" 
d="M1223 0h-396l-219 313l-225 -313h-389l407 535l-368 485h391l190 -272l193 272h379l-367 -485z" />
    <glyph glyph-name="y" unicode="y" horiz-adv-x="1161" 
d="M1163 1020l-456 -1174q-33 -84 -69.5 -143t-89 -105t-124.5 -68t-166 -22q-90 0 -184 23l37 283q63 -19 108 -19q73 0 109 32t63 105l33 84l-426 1004h373l227 -655h6l203 655h356z" />
    <glyph glyph-name="z" unicode="z" horiz-adv-x="1048" 
d="M979 0h-909v262l479 500h-461v258h870v-252l-493 -508h514v-260z" />
    <glyph glyph-name="braceleft" unicode="{" horiz-adv-x="700" 
d="M598 -319h-168q-128 0 -204 82.5t-76 220.5v342q0 151 -138 151v225q138 0 138 144v350q0 138 76 220.5t204 82.5h168v-215h-96q-94 0 -94 -123v-342q0 -56 -20 -101t-51.5 -70t-61.5 -39t-58 -17v-4q29 -3 58.5 -15.5t61 -37.5t51.5 -72.5t20 -110.5v-334
q0 -122 94 -122h96v-215z" />
    <glyph glyph-name="bar" unicode="|" horiz-adv-x="493" 
d="M381 -512h-266l-2 2048h268v-2048z" />
    <glyph glyph-name="braceright" unicode="}" horiz-adv-x="700" 
d="M688 477q-137 0 -137 -151v-342q0 -138 -76.5 -220.5t-204.5 -82.5h-168v215h97q94 0 94 122v334q0 63 20 110.5t51 72.5t60.5 37.5t58.5 15.5v4q-28 3 -58 17t-61 39t-51 70t-20 101v342q0 123 -94 123h-97v215h168q128 0 204.5 -82.5t76.5 -220.5v-350q0 -144 137 -144
v-225z" />
    <glyph glyph-name="asciitilde" unicode="~" horiz-adv-x="1363" 
d="M1214 588v-4q-56 -95 -121.5 -150t-162.5 -55q-62 0 -113 18t-117 60q-66 41 -115.5 59.5t-103.5 18.5q-102 0 -172 -144l-135 213q104 203 281 203q118 0 245 -76q142 -82 203 -82q51 0 91.5 38t86.5 108z" />
    <glyph glyph-name="uni00A0" unicode="&#xa0;" horiz-adv-x="512" 
 />
    <glyph glyph-name="exclamdown" unicode="&#xa1;" horiz-adv-x="731" 
d="M565 866q0 -80 -58.5 -136t-141.5 -56t-141 57t-58 137q0 81 59 137t140 56q83 0 141.5 -56.5t58.5 -138.5zM537 -410h-344v965h344v-965z" />
    <glyph glyph-name="cent" unicode="&#xa2;" horiz-adv-x="1323" 
d="M1126 104q-58 -58 -144 -91.5t-183 -41.5v-133h-156v133q-216 25 -346.5 173.5t-130.5 367.5q0 218 130 362t347 175v131h156v-131q98 -6 184 -38.5t141 -90.5l-170 -213q-64 67 -155 79v-553q94 9 162 80zM643 238v544q-90 -21 -139 -95t-49 -177q0 -99 50 -173.5
t138 -98.5z" />
    <glyph glyph-name="sterling" unicode="&#xa3;" horiz-adv-x="1323" 
d="M1280 1348l-197 -226q-33 36 -83 57t-105 21q-49 0 -87.5 -15t-62 -39t-38.5 -57t-21 -65.5t-6 -67.5v-104h319v-236h-319v-327h530v-289h-1063v289h195v327h-195v236h195v125q0 70 18 139t59.5 137t101.5 120t151.5 84t201.5 32q252 0 406 -141z" />
    <glyph glyph-name="currency" unicode="&#xa4;" horiz-adv-x="1945" 
d="M1460 940q86 -133 86 -307q0 -184 -92 -318l191 -190l-172 -172q-44 42 -199 197q-132 -80 -299 -80q-159 0 -301 84q-135 -135 -203 -201l-172 172l197 197q-86 128 -86 311q0 171 79 301l-190 190q59 57 174 172q33 -33 98.5 -97t96.5 -95q139 84 307 84q169 0 307 -80
l188 188q29 -28 88 -85.5t87 -86.5zM975 903q-113 0 -185.5 -79t-72.5 -191q0 -116 72 -195.5t186 -79.5q115 0 187.5 79.5t72.5 195.5q0 111 -73.5 190.5t-186.5 79.5z" />
    <glyph glyph-name="yen" unicode="&#xa5;" horiz-adv-x="1323" 
d="M1305 1450l-367 -598h254v-211h-367v-133h367v-211h-367v-297h-323v297h-365v211h365v133h-365v211h260l-372 598h378l271 -532l264 532h367z" />
    <glyph glyph-name="brokenbar" unicode="&#xa6;" horiz-adv-x="493" 
d="M381 641h-268v741h268v-741zM381 -358h-268v741h268v-741z" />
    <glyph glyph-name="section" unicode="&#xa7;" horiz-adv-x="1243" 
d="M1151 571q0 -80 -42 -148.5t-112 -107.5q103 -71 103 -225q0 -82 -30.5 -149.5t-80 -111.5t-115.5 -74.5t-134.5 -44t-139.5 -13.5q-153 0 -296 65t-222 183l250 178q43 -73 120.5 -111.5t153.5 -38.5q57 0 103.5 28t46.5 77q0 27 -11.5 48t-27 36t-55 33t-72 30
t-100.5 36q-2 1 -3 1q-69 24 -116.5 44t-97 50t-79 64t-48.5 82.5t-19 107.5q0 97 49 168t127 115q-108 79 -108 231q0 91 43.5 163t114 114.5t151 64t162.5 21.5q152 0 274.5 -54.5t192.5 -156.5l-238 -180q-36 56 -95.5 89.5t-119.5 33.5q-57 0 -101 -26t-44 -75
q0 -52 54.5 -87.5t184.5 -80.5q69 -25 119 -48.5t101.5 -57t83.5 -71t52.5 -89.5t20.5 -113zM848 539q0 29 -12.5 53t-38 43t-48.5 31t-61 28l-176 72q-84 -34 -84 -109q0 -30 12 -52.5t40.5 -41t48.5 -27.5t63 -26l192 -76q30 13 47 42.5t17 62.5z" />
    <glyph glyph-name="dieresis" unicode="&#xa8;" 
d="M700 1348q0 -70 -50 -119t-120 -49q-72 0 -121 49t-49 119q0 67 49.5 116t120.5 49q69 0 119.5 -48t50.5 -117zM256 1348q0 -70 -50.5 -119t-121.5 -49q-70 0 -120 49.5t-50 118.5q0 67 50 116t120 49q71 0 121.5 -48t50.5 -117z" />
    <glyph glyph-name="copyright" unicode="&#xa9;" horiz-adv-x="1638" 
d="M1597 723q0 -158 -61.5 -300.5t-165.5 -244.5t-247.5 -162.5t-301.5 -60.5q-159 0 -303 60.5t-248.5 162.5t-166.5 244.5t-62 300.5t62 301.5t166.5 246.5t248.5 163.5t303 60.5q158 0 301.5 -60.5t247.5 -163.5t165.5 -246.5t61.5 -301.5zM1475 723q0 178 -88 329.5
t-238.5 239.5t-327.5 88q-133 0 -255 -52t-210 -140t-140 -210t-52 -255t51.5 -253.5t139 -208t208.5 -139.5t254 -52q177 0 328.5 87.5t240.5 238t89 327.5zM1198 1044l-158 -143q-29 37 -79 58.5t-105 21.5q-108 0 -170.5 -76.5t-62.5 -181.5q0 -106 65 -184t180 -78
q53 0 102 19.5t79 54.5l147 -156q-58 -61 -147 -95t-191 -34q-135 0 -243.5 54t-175 162.5t-66.5 254.5q0 141 66.5 249.5t176 164t242.5 55.5q102 0 193.5 -39t146.5 -107z" />
    <glyph glyph-name="ordfeminine" unicode="&#xaa;" horiz-adv-x="786" 
d="M483 883v55h-2q-21 -33 -68 -51.5t-104 -18.5q-87 0 -152 46t-65 135q0 51 24 89t60 58.5t90 33t101 16t106 3.5v8q0 35 -28 53.5t-74 18.5q-83 0 -140 -57q-18 18 -54.5 55.5t-55.5 56.5q50 46 121.5 71.5t146.5 25.5q285 0 285 -262v-336h-191zM479 1108v25h-24
q-164 0 -164 -72q0 -27 23 -41t53 -14q53 0 82.5 28.5t29.5 73.5z" />
    <glyph glyph-name="guillemotleft" unicode="&#xab;" horiz-adv-x="1112" 
d="M1042 174l-198 -129l-330 475l330 475l198 -129l-235 -346zM582 174l-201 -129l-330 475l330 475l199 -129l-236 -346z" />
    <glyph glyph-name="logicalnot" unicode="&#xac;" horiz-adv-x="1363" 
d="M1241 297h-266v375h-871v252h1137v-627z" />
    <glyph glyph-name="uni00AD" unicode="&#xad;" horiz-adv-x="667" 
d="M594 403h-520v267h520v-267z" />
    <glyph glyph-name="registered" unicode="&#xae;" horiz-adv-x="1228" 
d="M571 1067h54q25 0 41 13.5t16 33.5q0 17 -17 27t-40 10h-54v-84zM899 748h-205l-90 192h-33v-192h-180v544h234q47 0 88.5 -8.5t78.5 -27.5t58.5 -55t21.5 -85q0 -112 -98 -151zM147 1008q0 193 137.5 329t331.5 136q192 0 328.5 -136t136.5 -329q0 -127 -62.5 -233
t-169.5 -167t-233 -61q-127 0 -235 61t-171 167t-63 233zM221 1008q0 -162 115.5 -278t279.5 -116q162 0 277 116t115 278q0 163 -114.5 278t-277.5 115q-164 0 -279.5 -115t-115.5 -278z" />
    <glyph glyph-name="macron" unicode="&#xaf;" 
d="M651 1231h-688v176h688v-176z" />
    <glyph glyph-name="degree" unicode="&#xb0;" horiz-adv-x="851" 
d="M770 1143q0 -145 -99.5 -244.5t-244.5 -99.5t-244.5 99.5t-99.5 244.5t99.5 243.5t244.5 98.5t244.5 -98.5t99.5 -243.5zM606 1143q0 74 -52.5 127t-127.5 53t-127.5 -53t-52.5 -127q0 -75 52.5 -127.5t127.5 -52.5t127.5 52.5t52.5 127.5z" />
    <glyph glyph-name="plusminus" unicode="&#xb1;" horiz-adv-x="1363" 
d="M1262 678h-435v-270h-266v270h-436v260h436v270h266v-270h435v-260zM1262 63h-1137v261h1137v-261z" />
    <glyph glyph-name="twosuperior" unicode="&#xb2;" horiz-adv-x="860" 
d="M766 563h-653v189l348 317q59 56 59 115q0 37 -25 60.5t-67 23.5q-46 0 -76 -34.5t-35 -90.5l-225 26q15 141 112.5 222.5t233.5 81.5q87 0 159 -28t120.5 -92t48.5 -155q0 -46 -12 -85.5t-37.5 -74.5t-47 -57.5t-59.5 -56.5l-178 -158h334v-203z" />
    <glyph glyph-name="threesuperior" unicode="&#xb3;" horiz-adv-x="860" 
d="M776 827q0 -71 -29.5 -126.5t-78.5 -88t-107 -49t-121 -16.5q-130 0 -227 61.5t-133 188.5l215 57q15 -48 48 -78.5t83 -30.5q47 0 81 23.5t34 71.5q0 96 -160 96h-68v172h74q133 0 133 94q0 35 -26 56.5t-68 21.5q-37 0 -66 -27t-38 -71l-216 51q32 115 126 178.5
t210 63.5q62 0 117.5 -15t100 -44t70.5 -78t26 -111q0 -67 -31.5 -117.5t-85.5 -77.5q65 -23 101 -77.5t36 -127.5z" />
    <glyph glyph-name="acute" unicode="&#xb4;" 
d="M694 1466l-299 -295h-254l213 295h340z" />
    <glyph glyph-name="mu" unicode="&#xb5;" horiz-adv-x="1363" 
d="M182 1020h332v-508q0 -32 3 -62t13.5 -66.5t26.5 -63t46 -44.5t69 -18q97 0 141.5 63t44.5 164v535h332v-1020h-318v117h-2q-75 -131 -227 -131q-85 0 -129 41v-490h-332v1483z" />
    <glyph glyph-name="paragraph" unicode="&#xb6;" horiz-adv-x="1265" 
d="M1137 -264h-238v1509h-174v-1509h-238v950q-200 4 -319 106.5t-119 268.5q0 389 500 389h588v-1714z" />
    <glyph glyph-name="periodcentered" unicode="&#xb7;" 
d="M514 596q0 -84 -60.5 -142.5t-144.5 -58.5q-86 0 -147.5 57.5t-61.5 141.5q0 83 61.5 143t147.5 60q84 0 144.5 -58.5t60.5 -142.5z" />
    <glyph glyph-name="cedilla" unicode="&#xb8;" 
d="M580 -291q0 -56 -28 -97.5t-75 -63t-96 -31t-102 -9.5q-138 0 -244 52l55 123q80 -39 172 -39q41 0 72 15t31 52q0 33 -29 46.5t-68 13.5q-41 0 -82 -13l-63 60l137 182h168l-96 -123q14 2 37 2q41 0 75 -7.5t66.5 -25t51 -52.5t18.5 -85z" />
    <glyph glyph-name="onesuperior" unicode="&#xb9;" horiz-adv-x="860" 
d="M608 557h-239v627l-152 -119l-123 166l297 219h217v-893z" />
    <glyph glyph-name="ordmasculine" unicode="&#xba;" horiz-adv-x="786" 
d="M713 1178q0 -137 -92 -223.5t-228 -86.5q-135 0 -226 86.5t-91 223.5q0 135 91 220t226 85q136 0 228 -84.5t92 -220.5zM518 1178q0 53 -34.5 91t-90.5 38t-88.5 -37.5t-32.5 -91.5q0 -55 32.5 -93t88.5 -38q58 0 91.5 38t33.5 93z" />
    <glyph glyph-name="guillemotright" unicode="&#xbb;" horiz-adv-x="1112" 
d="M1063 518l-332 -473l-199 129l236 344l-236 348l199 129zM600 518l-330 -473l-198 129l235 344l-237 348l200 129z" />
    <glyph glyph-name="onequarter" unicode="&#xbc;" horiz-adv-x="1925" 
d="M1806 170h-118v-170h-218v170h-409v190l358 533h269v-531h118v-192zM1470 362v275h-2l-180 -275h182zM1436 1432l-795 -1493l-178 79l786 1495zM608 557h-239v627l-152 -119l-123 166l297 219h217v-893z" />
    <glyph glyph-name="onehalf" unicode="&#xbd;" horiz-adv-x="1925" 
d="M1831 0h-653v188l348 320q59 52 59 113q0 37 -24.5 60.5t-65.5 23.5q-46 0 -77.5 -34t-35.5 -91l-225 28q15 139 112.5 221t233.5 82q64 0 121.5 -17t104.5 -49.5t74.5 -86.5t27.5 -123q0 -86 -40 -146.5t-116 -128.5l-178 -155h334v-205zM1436 1432l-795 -1493l-178 79
l786 1495zM608 557h-239v627l-152 -119l-123 166l297 219h217v-893z" />
    <glyph glyph-name="threequarters" unicode="&#xbe;" horiz-adv-x="1925" 
d="M1806 170h-118v-170h-218v170h-409v190l358 533h269v-531h118v-192zM1470 362v275h-2l-180 -275h182zM1436 1432l-795 -1493l-178 79l786 1495zM776 827q0 -71 -29.5 -126.5t-78.5 -88t-107 -49t-121 -16.5q-130 0 -227 61.5t-133 188.5l215 57q15 -48 48 -78.5t83 -30.5
q47 0 81 23.5t34 71.5q0 96 -160 96h-68v172h74q133 0 133 94q0 35 -26 56.5t-68 21.5q-37 0 -66 -27t-38 -71l-216 51q32 115 126 178.5t210 63.5q62 0 117.5 -15t100 -44t70.5 -78t26 -111q0 -67 -31.5 -117.5t-85.5 -77.5q65 -23 101 -77.5t36 -127.5z" />
    <glyph glyph-name="questiondown" unicode="&#xbf;" horiz-adv-x="1118" 
d="M739 868q0 -80 -58.5 -137t-141.5 -57q-82 0 -141.5 56.5t-59.5 135.5q0 82 59 138.5t142 56.5q82 0 141 -56t59 -137zM1038 -4q-24 -214 -167 -328t-349 -114q-94 0 -178 24.5t-153.5 72.5t-110.5 128t-41 182q0 66 15 118t49 97.5t70 79t97 80.5q67 52 89 89t22 99v54
h319v-76q0 -100 -37 -164.5t-124 -144.5l-70 -62q-42 -38 -63 -70.5t-21 -74.5q0 -66 41.5 -106t110.5 -40q79 0 125.5 56.5t48.5 136.5z" />
    <glyph glyph-name="Agrave" unicode="&#xc0;" horiz-adv-x="1492" 
d="M1522 0h-389l-113 285h-561l-107 -285h-381l609 1450h340zM924 565l-181 498l-184 -498h365zM899 1565h-254l-299 295h340z" />
    <glyph glyph-name="Aacute" unicode="&#xc1;" horiz-adv-x="1492" 
d="M1522 0h-389l-113 285h-561l-107 -285h-381l609 1450h340zM924 565l-181 498l-184 -498h365zM1155 1860l-299 -295h-254l213 295h340z" />
    <glyph glyph-name="Acircumflex" unicode="&#xc2;" horiz-adv-x="1492" 
d="M1522 0h-389l-113 285h-561l-107 -285h-381l609 1450h340zM924 565l-181 498l-184 -498h365zM1155 1565h-266l-139 166l-140 -166h-262l254 295h303z" />
    <glyph glyph-name="Atilde" unicode="&#xc3;" horiz-adv-x="1492" 
d="M1522 0h-389l-113 285h-561l-107 -285h-381l609 1450h340zM924 565l-181 498l-184 -498h365zM1128 1843q-13 -119 -69.5 -194.5t-161.5 -75.5q-75 0 -166 43q-78 41 -129 41q-63 0 -86 -82h-147q7 56 23 101.5t42.5 83.5t69 59.5t96.5 21.5q77 0 164 -41t133 -41
q65 0 86 84h145z" />
    <glyph glyph-name="Adieresis" unicode="&#xc4;" horiz-adv-x="1492" 
d="M1522 0h-389l-113 285h-561l-107 -285h-381l609 1450h340zM924 565l-181 498l-184 -498h365zM1143 1741q0 -70 -50 -119t-120 -49q-71 0 -120.5 49.5t-49.5 118.5q0 67 49.5 116.5t120.5 49.5q69 0 119.5 -48.5t50.5 -117.5zM698 1741q0 -70 -50.5 -119t-121.5 -49
q-70 0 -120 49.5t-50 118.5q0 67 50 116.5t120 49.5q71 0 121.5 -48.5t50.5 -117.5z" />
    <glyph glyph-name="Aring" unicode="&#xc5;" horiz-adv-x="1492" 
d="M1522 0h-389l-113 285h-561l-107 -285h-381l609 1450h340zM924 565l-181 498l-184 -498h365zM975 1753q0 -94 -65 -156.5t-158 -62.5t-158.5 62t-65.5 155q0 95 65 158t159 63q93 0 158 -63t65 -156zM872 1753q0 51 -34.5 85t-85.5 34q-52 0 -86.5 -35t-34.5 -86
q0 -49 35 -83t86 -34t85.5 34t34.5 85z" />
    <glyph glyph-name="AE" unicode="&#xc6;" horiz-adv-x="2115" 
d="M2034 0h-981v313h-473l-181 -313h-407l848 1450h1157v-297h-611v-272h576v-281h-576v-301h648v-299zM1053 596v557h-21l-313 -557h334z" />
    <glyph glyph-name="Ccedilla" unicode="&#xc7;" horiz-adv-x="1425" 
d="M1087 -291q0 -56 -28 -97.5t-75 -63t-96 -31t-102 -9.5q-137 0 -243 52l55 123q80 -39 172 -39q41 0 71.5 15t30.5 52q0 60 -96 60q-41 0 -82 -13l-63 60l112 151q-144 18 -266 81t-209 160.5t-136.5 230.5t-49.5 286q0 227 104.5 402t282.5 267.5t399 92.5
q158 0 306.5 -56t236.5 -157l-237 -238q-48 65 -127 99t-166 34q-182 0 -300 -125.5t-118 -318.5q0 -198 114.5 -321t296.5 -123q100 0 180.5 40t127.5 107l243 -229q-91 -107 -223.5 -169t-296.5 -69l-65 -86q14 2 37 2q41 0 75 -7.5t66 -25t50.5 -52.5t18.5 -85z" />
    <glyph glyph-name="Egrave" unicode="&#xc8;" horiz-adv-x="1243" 
d="M1161 0h-1011v1450h974v-297h-637v-272h603v-281h-603v-301h674v-299zM831 1565h-253l-299 295h339z" />
    <glyph glyph-name="Eacute" unicode="&#xc9;" horiz-adv-x="1243" 
d="M1161 0h-1011v1450h974v-297h-637v-272h603v-281h-603v-301h674v-299zM1030 1860l-299 -295h-254l213 295h340z" />
    <glyph glyph-name="Ecircumflex" unicode="&#xca;" horiz-adv-x="1243" 
d="M1161 0h-1011v1450h974v-297h-637v-272h603v-281h-603v-301h674v-299zM1049 1565h-267l-139 166l-139 -166h-262l254 295h303z" />
    <glyph glyph-name="Edieresis" unicode="&#xcb;" horiz-adv-x="1243" 
d="M1161 0h-1011v1450h974v-297h-637v-272h603v-281h-603v-301h674v-299zM1038 1741q0 -70 -50 -119t-120 -49q-72 0 -121 49.5t-49 118.5q0 67 49.5 116.5t120.5 49.5q69 0 119.5 -48.5t50.5 -117.5zM594 1741q0 -70 -50.5 -119t-121.5 -49q-70 0 -120 49.5t-50 118.5
q0 67 50 116.5t120 49.5q71 0 121.5 -48.5t50.5 -117.5z" />
    <glyph glyph-name="Igrave" unicode="&#xcc;" horiz-adv-x="651" 
d="M502 0h-352v1450h352v-1450zM502 1565h-254l-299 295h340z" />
    <glyph glyph-name="Iacute" unicode="&#xcd;" horiz-adv-x="651" 
d="M502 0h-352v1450h352v-1450zM702 1860l-299 -295h-253l212 295h340z" />
    <glyph glyph-name="Icircumflex" unicode="&#xce;" horiz-adv-x="651" 
d="M502 0h-352v1450h352v-1450zM727 1565h-266l-139 166l-140 -166h-262l254 295h303z" />
    <glyph glyph-name="Idieresis" unicode="&#xcf;" horiz-adv-x="651" 
d="M502 0h-352v1450h352v-1450zM719 1741q0 -70 -50 -119t-120 -49q-71 0 -120.5 49.5t-49.5 118.5q0 67 49.5 116.5t120.5 49.5q69 0 119.5 -48.5t50.5 -117.5zM274 1741q0 -70 -50.5 -119t-121.5 -49q-70 0 -120 49.5t-50 118.5q0 67 50 116.5t120 49.5q71 0 121.5 -48.5
t50.5 -117.5z" />
    <glyph glyph-name="Eth" unicode="&#xd0;" horiz-adv-x="1585" 
d="M1499 729q0 -146 -45.5 -268t-122.5 -206t-179.5 -142.5t-214 -85.5t-228.5 -27h-557v633h-125v219h125v598h559q127 0 240.5 -25t214.5 -80.5t174.5 -138t116 -205t42.5 -272.5zM1141 729q0 208 -125 312t-338 104h-184v-293h370v-219h-370v-326h151q110 0 198.5 24
t156 73.5t104.5 132t37 192.5z" />
    <glyph glyph-name="Ntilde" unicode="&#xd1;" horiz-adv-x="1617" 
d="M1468 0h-397l-584 948h-6l8 -948h-339v1450h399l581 -946h7l-9 946h340v-1450zM1196 1843q-13 -119 -69.5 -194.5t-161.5 -75.5q-75 0 -166 43q-78 41 -129 41q-63 0 -86 -82h-148q7 56 23 101.5t43 83.5t69.5 59.5t96.5 21.5q76 0 163 -41t134 -41q65 0 86 84h145z" />
    <glyph glyph-name="Ograve" unicode="&#xd2;" horiz-adv-x="1742" 
d="M1661 731q0 -226 -102.5 -402t-282.5 -272t-406 -96q-135 0 -256 35.5t-217.5 103.5t-167.5 161.5t-109 213.5t-38 256q0 228 102.5 401.5t281 265t404.5 91.5q227 0 406 -91.5t282 -265t103 -401.5zM1286 731q0 192 -116.5 317.5t-299.5 125.5t-298 -125.5t-115 -317.5
q0 -197 115.5 -323.5t297.5 -126.5q183 0 299.5 126.5t116.5 323.5zM1079 1565h-254l-299 295h340z" />
    <glyph glyph-name="Oacute" unicode="&#xd3;" horiz-adv-x="1742" 
d="M1661 731q0 -226 -102.5 -402t-282.5 -272t-406 -96q-135 0 -256 35.5t-217.5 103.5t-167.5 161.5t-109 213.5t-38 256q0 228 102.5 401.5t281 265t404.5 91.5q227 0 406 -91.5t282 -265t103 -401.5zM1286 731q0 192 -116.5 317.5t-299.5 125.5t-298 -125.5t-115 -317.5
q0 -197 115.5 -323.5t297.5 -126.5q183 0 299.5 126.5t116.5 323.5zM1239 1860l-299 -295h-254l213 295h340z" />
    <glyph glyph-name="Ocircumflex" unicode="&#xd4;" horiz-adv-x="1742" 
d="M1661 731q0 -226 -102.5 -402t-282.5 -272t-406 -96q-135 0 -256 35.5t-217.5 103.5t-167.5 161.5t-109 213.5t-38 256q0 228 102.5 401.5t281 265t404.5 91.5q227 0 406 -91.5t282 -265t103 -401.5zM1286 731q0 192 -116.5 317.5t-299.5 125.5t-298 -125.5t-115 -317.5
q0 -197 115.5 -323.5t297.5 -126.5q183 0 299.5 126.5t116.5 323.5zM1276 1565h-266l-140 166l-139 -166h-262l254 295h303z" />
    <glyph glyph-name="Otilde" unicode="&#xd5;" horiz-adv-x="1742" 
d="M1661 731q0 -226 -102.5 -402t-282.5 -272t-406 -96q-135 0 -256 35.5t-217.5 103.5t-167.5 161.5t-109 213.5t-38 256q0 228 102.5 401.5t281 265t404.5 91.5q227 0 406 -91.5t282 -265t103 -401.5zM1286 731q0 192 -116.5 317.5t-299.5 125.5t-298 -125.5t-115 -317.5
q0 -197 115.5 -323.5t297.5 -126.5q183 0 299.5 126.5t116.5 323.5zM1253 1843q-13 -119 -69.5 -194.5t-161.5 -75.5q-75 0 -166 43q-78 41 -129 41q-63 0 -86 -82h-147q7 56 23 101.5t42.5 83.5t69 59.5t96.5 21.5q77 0 164 -41t133 -41q65 0 86 84h145z" />
    <glyph glyph-name="Odieresis" unicode="&#xd6;" horiz-adv-x="1742" 
d="M1661 731q0 -226 -102.5 -402t-282.5 -272t-406 -96q-135 0 -256 35.5t-217.5 103.5t-167.5 161.5t-109 213.5t-38 256q0 228 102.5 401.5t281 265t404.5 91.5q227 0 406 -91.5t282 -265t103 -401.5zM1286 731q0 192 -116.5 317.5t-299.5 125.5t-298 -125.5t-115 -317.5
q0 -197 115.5 -323.5t297.5 -126.5q183 0 299.5 126.5t116.5 323.5zM1266 1741q0 -70 -50 -119t-120 -49q-72 0 -121 49.5t-49 118.5q0 67 49.5 116.5t120.5 49.5q69 0 119.5 -48.5t50.5 -117.5zM821 1741q0 -70 -50.5 -119t-121.5 -49q-70 0 -120 49.5t-50 118.5
q0 67 50 116.5t120 49.5q71 0 121.5 -48.5t50.5 -117.5z" />
    <glyph glyph-name="multiply" unicode="&#xd7;" horiz-adv-x="1363" 
d="M1237 266l-193 -190l-362 354l-360 -354l-191 182l363 358l-365 357l193 186l362 -354l356 352l187 -178l-357 -354z" />
    <glyph glyph-name="Oslash" unicode="&#xd8;" horiz-adv-x="1742" 
d="M82 729q0 228 102.5 401.5t281 265t404.5 91.5q258 0 449 -119q29 33 89 99.5t89 99.5q23 -20 68.5 -60t68.5 -61q-33 -34 -93.5 -100.5t-82.5 -90.5q203 -206 203 -526q0 -168 -60 -311.5t-165.5 -242.5t-252 -155t-315.5 -57h-10q-277 0 -459 141q-30 -33 -90.5 -97
t-91.5 -97q-98 85 -137 117q31 33 91.5 99t90.5 99q-88 94 -134 223.5t-46 280.5zM1300 729q0 164 -77 266q-99 -108 -298.5 -325t-299.5 -326q95 -76 243 -76q194 0 313 131t119 330zM438 727q0 -148 64 -246q296 323 594 645q-89 60 -226 60q-197 0 -314.5 -131.5
t-117.5 -327.5z" />
    <glyph glyph-name="Ugrave" unicode="&#xd9;" horiz-adv-x="1511" 
d="M1378 547q0 -262 -170.5 -424t-453.5 -162t-451 161.5t-168 424.5v903h348v-875q0 -61 15.5 -113t47 -94.5t85.5 -67t125 -24.5q72 0 126 24.5t85 67t46 94.5t15 113v875h350v-903zM963 1565h-254l-299 295h340z" />
    <glyph glyph-name="Uacute" unicode="&#xda;" horiz-adv-x="1511" 
d="M1378 547q0 -262 -170.5 -424t-453.5 -162t-451 161.5t-168 424.5v903h348v-875q0 -61 15.5 -113t47 -94.5t85.5 -67t125 -24.5q72 0 126 24.5t85 67t46 94.5t15 113v875h350v-903zM1112 1860l-299 -295h-254l213 295h340z" />
    <glyph glyph-name="Ucircumflex" unicode="&#xdb;" horiz-adv-x="1511" 
d="M1378 547q0 -262 -170.5 -424t-453.5 -162t-451 161.5t-168 424.5v903h348v-875q0 -61 15.5 -113t47 -94.5t85.5 -67t125 -24.5q72 0 126 24.5t85 67t46 94.5t15 113v875h350v-903zM1161 1565h-266l-139 166l-140 -166h-262l254 295h303z" />
    <glyph glyph-name="Udieresis" unicode="&#xdc;" horiz-adv-x="1511" 
d="M1378 547q0 -262 -170.5 -424t-453.5 -162t-451 161.5t-168 424.5v903h348v-875q0 -61 15.5 -113t47 -94.5t85.5 -67t125 -24.5q72 0 126 24.5t85 67t46 94.5t15 113v875h350v-903zM1151 1741q0 -70 -50 -119t-120 -49q-71 0 -120.5 49.5t-49.5 118.5q0 67 49.5 116.5
t120.5 49.5q69 0 119.5 -48.5t50.5 -117.5zM707 1741q0 -70 -50.5 -119t-121.5 -49q-70 0 -120 49.5t-50 118.5q0 67 50 116.5t120 49.5q71 0 121.5 -48.5t50.5 -117.5z" />
    <glyph glyph-name="Yacute" unicode="&#xdd;" horiz-adv-x="1370" 
d="M1411 1450l-557 -836v-614h-350v614l-545 836h424l309 -537l309 537h410zM1112 1860l-299 -295h-254l213 295h340z" />
    <glyph glyph-name="Thorn" unicode="&#xde;" horiz-adv-x="1310" 
d="M1249 756q0 -122 -46.5 -212.5t-128.5 -142.5t-181.5 -77t-218.5 -25h-174v-299h-350v1450h350v-248h182q98 0 181 -14.5t155.5 -47.5t122.5 -83.5t79 -127t29 -173.5zM899 754q0 51 -20 85.5t-57 51.5t-77 24t-92 7h-153v-344h147q71 0 124.5 14.5t90.5 55.5t37 106z
" />
    <glyph glyph-name="germandbls" unicode="&#xdf;" horiz-adv-x="1366" 
d="M567 287q76 -27 150 -27q106 0 168.5 50.5t62.5 160.5q0 117 -77 175.5t-199 58.5h-43v264h45q19 0 39 3t45.5 13.5t45 27.5t33 48.5t13.5 73.5q0 70 -45.5 117.5t-126.5 47.5q-47 0 -84.5 -16.5t-61 -43t-38.5 -63t-21 -74t-6 -79.5v-1024h-336v1026q0 119 34 217
t101 172.5t175.5 116t250.5 41.5q210 0 353 -112.5t143 -297.5q0 -111 -60.5 -194.5t-152.5 -112.5v-2q143 -28 228 -134.5t85 -264.5q0 -224 -143 -353t-381 -129q-91 0 -197 25v289z" />
    <glyph glyph-name="agrave" unicode="&#xe0;" horiz-adv-x="1159" 
d="M733 410v34h-43q-63 0 -112 -5t-98 -18.5t-76 -43t-27 -72.5q0 -54 43 -79t102 -25q100 0 155.5 56.5t55.5 152.5zM287 698l-170 183q88 83 207.5 127.5t246.5 44.5q253 0 361 -128t108 -411v-514h-307v109h-6q-38 -62 -117.5 -98t-171.5 -36q-65 0 -127 17t-118 52.5
t-90.5 100t-34.5 150.5q0 344 655 344v16q0 72 -51 110t-133 38q-69 0 -136 -29.5t-116 -75.5zM782 1171h-254l-299 295h340z" />
    <glyph glyph-name="aacute" unicode="&#xe1;" horiz-adv-x="1159" 
d="M733 410v34h-43q-63 0 -112 -5t-98 -18.5t-76 -43t-27 -72.5q0 -54 43 -79t102 -25q100 0 155.5 56.5t55.5 152.5zM287 698l-170 183q88 83 207.5 127.5t246.5 44.5q253 0 361 -128t108 -411v-514h-307v109h-6q-38 -62 -117.5 -98t-171.5 -36q-65 0 -127 17t-118 52.5
t-90.5 100t-34.5 150.5q0 344 655 344v16q0 72 -51 110t-133 38q-69 0 -136 -29.5t-116 -75.5zM938 1466l-299 -295h-254l213 295h340z" />
    <glyph glyph-name="acircumflex" unicode="&#xe2;" horiz-adv-x="1159" 
d="M733 410v34h-43q-63 0 -112 -5t-98 -18.5t-76 -43t-27 -72.5q0 -54 43 -79t102 -25q100 0 155.5 56.5t55.5 152.5zM287 698l-170 183q88 83 207.5 127.5t246.5 44.5q253 0 361 -128t108 -411v-514h-307v109h-6q-38 -62 -117.5 -98t-171.5 -36q-65 0 -127 17t-118 52.5
t-90.5 100t-34.5 150.5q0 344 655 344v16q0 72 -51 110t-133 38q-69 0 -136 -29.5t-116 -75.5zM987 1171h-266l-139 166l-140 -166h-262l254 295h303z" />
    <glyph glyph-name="atilde" unicode="&#xe3;" horiz-adv-x="1159" 
d="M733 410v34h-43q-63 0 -112 -5t-98 -18.5t-76 -43t-27 -72.5q0 -54 43 -79t102 -25q100 0 155.5 56.5t55.5 152.5zM287 698l-170 183q88 83 207.5 127.5t246.5 44.5q253 0 361 -128t108 -411v-514h-307v109h-6q-38 -62 -117.5 -98t-171.5 -36q-65 0 -127 17t-118 52.5
t-90.5 100t-34.5 150.5q0 344 655 344v16q0 72 -51 110t-133 38q-69 0 -136 -29.5t-116 -75.5zM969 1450q-13 -119 -70 -194.5t-162 -75.5q-75 0 -166 43q-78 41 -129 41q-63 0 -86 -82h-147q7 56 23 101.5t42.5 83.5t69 59.5t96.5 21.5q77 0 164 -41t133 -41q65 0 86 84
h146z" />
    <glyph glyph-name="adieresis" unicode="&#xe4;" horiz-adv-x="1159" 
d="M733 410v34h-43q-63 0 -112 -5t-98 -18.5t-76 -43t-27 -72.5q0 -54 43 -79t102 -25q100 0 155.5 56.5t55.5 152.5zM287 698l-170 183q88 83 207.5 127.5t246.5 44.5q253 0 361 -128t108 -411v-514h-307v109h-6q-38 -62 -117.5 -98t-171.5 -36q-65 0 -127 17t-118 52.5
t-90.5 100t-34.5 150.5q0 344 655 344v16q0 72 -51 110t-133 38q-69 0 -136 -29.5t-116 -75.5zM977 1348q0 -70 -50 -119t-120 -49q-71 0 -120.5 49t-49.5 119q0 67 49.5 116t120.5 49q69 0 119.5 -48t50.5 -117zM532 1348q0 -70 -50.5 -119t-121.5 -49q-70 0 -120 49.5
t-50 118.5q0 67 50 116t120 49q71 0 121.5 -48t50.5 -117z" />
    <glyph glyph-name="aring" unicode="&#xe5;" horiz-adv-x="1159" 
d="M733 410v34h-43q-63 0 -112 -5t-98 -18.5t-76 -43t-27 -72.5q0 -54 43 -79t102 -25q100 0 155.5 56.5t55.5 152.5zM287 698l-170 183q88 83 207.5 127.5t246.5 44.5q253 0 361 -128t108 -411v-514h-307v109h-6q-38 -62 -117.5 -98t-171.5 -36q-65 0 -127 17t-118 52.5
t-90.5 100t-34.5 150.5q0 344 655 344v16q0 72 -51 110t-133 38q-69 0 -136 -29.5t-116 -75.5zM811 1360q0 -94 -65 -156.5t-158 -62.5t-158 62t-65 155q0 95 64.5 158t158.5 63q93 0 158 -63t65 -156zM709 1360q0 51 -35 85t-86 34q-52 0 -86.5 -35t-34.5 -86q0 -49 35 -83
t86 -34t86 34t35 85z" />
    <glyph glyph-name="ae" unicode="&#xe6;" horiz-adv-x="1841" 
d="M733 391v33h-43q-78 0 -131.5 -5t-96.5 -17.5t-64 -36.5t-21 -60q0 -54 43 -79t102 -25q100 0 155.5 50.5t55.5 139.5zM1020 627h432q0 84 -52.5 139t-148.5 55q-95 0 -160 -57t-71 -137zM1489 332l231 -148q-71 -105 -189 -161t-274 -56q-120 0 -221.5 49t-161.5 136
q-109 -177 -413 -177q-55 0 -108.5 10.5t-105.5 35t-91.5 60.5t-63.5 91.5t-24 122.5q0 69 24.5 123t72 89.5t105.5 59.5t136.5 36t152 17t164.5 5v14q0 164 -182 164q-68 0 -137 -30t-117 -75l-168 183q86 83 205.5 127.5t246.5 44.5q118 0 202 -42.5t128 -107.5
q59 68 148.5 109t201.5 41q228 0 370 -149t142 -406q0 -30 -4 -80h-737q9 -85 79 -139t163 -54q150 0 225 107z" />
    <glyph glyph-name="ccedilla" unicode="&#xe7;" horiz-adv-x="1030" 
d="M881 -291q0 -56 -28 -97.5t-75 -63t-96 -31t-102 -9.5q-138 0 -244 52l55 123q80 -39 172 -39q41 0 72 15t31 52q0 33 -29 46.5t-68 13.5q-41 0 -82 -13l-63 60l119 157q-207 32 -335 174t-128 361q0 162 76.5 287t205 190.5t287.5 65.5q109 0 214 -38.5t165 -99.5
l-194 -225q-28 37 -78 59.5t-101 22.5q-103 0 -169 -76.5t-66 -185.5t66 -184.5t173 -75.5q53 0 103 20t80 56l186 -228q-55 -54 -140.5 -87.5t-182.5 -41.5l-72 -92q14 2 37 2q41 0 75 -7.5t66.5 -25t51 -52.5t18.5 -85z" />
    <glyph glyph-name="egrave" unicode="&#xe8;" horiz-adv-x="1220" 
d="M401 627h433q0 84 -52.5 139t-148.5 55q-95 0 -160.5 -57t-71.5 -137zM1143 498q0 -55 -2 -80h-740q7 -83 79 -138t165 -55q146 0 225 107l234 -148q-73 -105 -191 -161t-272 -56q-156 0 -281.5 62t-202.5 186t-77 291q0 163 73.5 289t198 192t279.5 66q229 0 370.5 -149
t141.5 -406zM823 1171h-254l-299 295h340z" />
    <glyph glyph-name="eacute" unicode="&#xe9;" horiz-adv-x="1220" 
d="M401 627h433q0 84 -52.5 139t-148.5 55q-95 0 -160.5 -57t-71.5 -137zM1143 498q0 -55 -2 -80h-740q7 -83 79 -138t165 -55q146 0 225 107l234 -148q-73 -105 -191 -161t-272 -56q-156 0 -281.5 62t-202.5 186t-77 291q0 163 73.5 289t198 192t279.5 66q229 0 370.5 -149
t141.5 -406zM977 1466l-299 -295h-254l213 295h340z" />
    <glyph glyph-name="ecircumflex" unicode="&#xea;" horiz-adv-x="1220" 
d="M401 627h433q0 84 -52.5 139t-148.5 55q-95 0 -160.5 -57t-71.5 -137zM1143 498q0 -55 -2 -80h-740q7 -83 79 -138t165 -55q146 0 225 107l234 -148q-73 -105 -191 -161t-272 -56q-156 0 -281.5 62t-202.5 186t-77 291q0 163 73.5 289t198 192t279.5 66q229 0 370.5 -149
t141.5 -406zM1047 1171h-267l-139 166l-139 -166h-262l254 295h303z" />
    <glyph glyph-name="edieresis" unicode="&#xeb;" horiz-adv-x="1220" 
d="M401 627h433q0 84 -52.5 139t-148.5 55q-95 0 -160.5 -57t-71.5 -137zM1143 498q0 -55 -2 -80h-740q7 -83 79 -138t165 -55q146 0 225 107l234 -148q-73 -105 -191 -161t-272 -56q-156 0 -281.5 62t-202.5 186t-77 291q0 163 73.5 289t198 192t279.5 66q229 0 370.5 -149
t141.5 -406zM1034 1348q0 -70 -50 -119t-120 -49q-72 0 -121 49t-49 119q0 67 49.5 116t120.5 49q69 0 119.5 -48t50.5 -117zM590 1348q0 -70 -50.5 -119t-121.5 -49q-70 0 -120 49.5t-50 118.5q0 67 50 116t120 49q71 0 121.5 -48t50.5 -117z" />
    <glyph glyph-name="igrave" unicode="&#xec;" horiz-adv-x="606" 
d="M471 0h-336v1020h336v-1020zM467 1171h-254l-299 295h340z" />
    <glyph glyph-name="iacute" unicode="&#xed;" horiz-adv-x="606" 
d="M471 0h-336v1020h336v-1020zM690 1466l-299 -295h-254l213 295h340z" />
    <glyph glyph-name="icircumflex" unicode="&#xee;" horiz-adv-x="606" 
d="M471 0h-336v1020h336v-1020zM713 1171h-267l-139 166l-139 -166h-262l254 295h303z" />
    <glyph glyph-name="idieresis" unicode="&#xef;" horiz-adv-x="606" 
d="M471 0h-336v1020h336v-1020zM700 1348q0 -70 -50 -119t-120 -49q-72 0 -121 49t-49 119q0 67 49.5 116t120.5 49q69 0 119.5 -48t50.5 -117zM256 1348q0 -70 -50.5 -119t-121.5 -49q-70 0 -120 49.5t-50 118.5q0 67 50 116t120 49q71 0 121.5 -48t50.5 -117z" />
    <glyph glyph-name="eth" unicode="&#xf0;" horiz-adv-x="1294" 
d="M1214 578q0 -281 -155.5 -446t-413.5 -165q-116 0 -219.5 38.5t-180 108t-121 173t-44.5 225.5q0 159 73 281.5t195.5 186.5t272.5 64q99 0 167 -51l5 2q-105 154 -201 234l-221 -99l-164 144l223 96q-49 50 -154 121l261 145q70 -53 176 -147l231 102l178 -145
l-248 -107q340 -368 340 -761zM891 512q0 104 -66 182t-180 78q-112 0 -177 -78t-65 -182q0 -107 65.5 -184.5t178.5 -77.5t178.5 77.5t65.5 184.5z" />
    <glyph glyph-name="ntilde" unicode="&#xf1;" horiz-adv-x="1261" 
d="M1139 0h-338v557q0 215 -152 215q-85 0 -132.5 -63t-47.5 -156v-553h-338v1020h326v-141h4q37 71 120.5 120.5t184.5 49.5q99 0 173.5 -36t116.5 -97t62.5 -132.5t20.5 -152.5v-631zM1018 1450q-13 -119 -70 -194.5t-162 -75.5q-74 0 -165 43q-78 41 -129 41
q-63 0 -86 -82h-148q7 56 23 101.5t42.5 83.5t69 59.5t96.5 21.5q77 0 164 -41t133 -41q65 0 86 84h146z" />
    <glyph glyph-name="ograve" unicode="&#xf2;" horiz-adv-x="1294" 
d="M1212 514q0 -162 -77.5 -288.5t-206 -192.5t-283.5 -66q-154 0 -282 66t-205.5 192.5t-77.5 288.5q0 122 45 224.5t122.5 170.5t180 106t217.5 38q116 0 219 -38t180.5 -106t122.5 -170.5t45 -224.5zM889 514q0 105 -65.5 182.5t-178.5 77.5q-112 0 -175.5 -77
t-63.5 -183t64.5 -185t176.5 -79t177 79t65 185zM813 1171h-254l-299 295h340z" />
    <glyph glyph-name="oacute" unicode="&#xf3;" horiz-adv-x="1294" 
d="M1212 514q0 -162 -77.5 -288.5t-206 -192.5t-283.5 -66q-154 0 -282 66t-205.5 192.5t-77.5 288.5q0 122 45 224.5t122.5 170.5t180 106t217.5 38q116 0 219 -38t180.5 -106t122.5 -170.5t45 -224.5zM889 514q0 105 -65.5 182.5t-178.5 77.5q-112 0 -175.5 -77
t-63.5 -183t64.5 -185t176.5 -79t177 79t65 185zM1024 1466l-299 -295h-254l213 295h340z" />
    <glyph glyph-name="ocircumflex" unicode="&#xf4;" horiz-adv-x="1294" 
d="M1212 514q0 -162 -77.5 -288.5t-206 -192.5t-283.5 -66q-154 0 -282 66t-205.5 192.5t-77.5 288.5q0 122 45 224.5t122.5 170.5t180 106t217.5 38q116 0 219 -38t180.5 -106t122.5 -170.5t45 -224.5zM889 514q0 105 -65.5 182.5t-178.5 77.5q-112 0 -175.5 -77
t-63.5 -183t64.5 -185t176.5 -79t177 79t65 185zM1038 1180h-258l-135 161l-135 -161h-256l248 286h295z" />
    <glyph glyph-name="otilde" unicode="&#xf5;" horiz-adv-x="1294" 
d="M1212 514q0 -162 -77.5 -288.5t-206 -192.5t-283.5 -66q-154 0 -282 66t-205.5 192.5t-77.5 288.5q0 122 45 224.5t122.5 170.5t180 106t217.5 38q116 0 219 -38t180.5 -106t122.5 -170.5t45 -224.5zM889 514q0 105 -65.5 182.5t-178.5 77.5q-112 0 -175.5 -77
t-63.5 -183t64.5 -185t176.5 -79t177 79t65 185zM1026 1450q-13 -119 -69.5 -194.5t-161.5 -75.5q-75 0 -166 43q-78 41 -129 41q-63 0 -86 -82h-148q7 56 23 101.5t43 83.5t69.5 59.5t96.5 21.5q77 0 164 -41t133 -41q65 0 86 84h145z" />
    <glyph glyph-name="odieresis" unicode="&#xf6;" horiz-adv-x="1294" 
d="M1212 514q0 -162 -77.5 -288.5t-206 -192.5t-283.5 -66q-154 0 -282 66t-205.5 192.5t-77.5 288.5q0 122 45 224.5t122.5 170.5t180 106t217.5 38q116 0 219 -38t180.5 -106t122.5 -170.5t45 -224.5zM889 514q0 105 -65.5 182.5t-178.5 77.5q-112 0 -175.5 -77
t-63.5 -183t64.5 -185t176.5 -79t177 79t65 185zM1038 1348q0 -70 -50 -119t-120 -49q-72 0 -121 49t-49 119q0 67 49.5 116t120.5 49q69 0 119.5 -48t50.5 -117zM594 1348q0 -70 -50.5 -119t-121.5 -49q-70 0 -120 49.5t-50 118.5q0 67 50 116t120 49q71 0 121.5 -48
t50.5 -117z" />
    <glyph glyph-name="divide" unicode="&#xf7;" horiz-adv-x="1363" 
d="M504 1001q0 70 53 121.5t125 51.5t124 -51t52 -122q0 -72 -52 -123t-124 -51t-125 51t-53 123zM504 240q0 70 53 121t125 51t124 -51t52 -121q0 -71 -52 -122.5t-124 -51.5t-125 52t-53 122zM1200 492h-1038v260h1038v-260z" />
    <glyph glyph-name="oslash" unicode="&#xf8;" horiz-adv-x="1294" 
d="M1243 983l-143 -141q112 -130 112 -330q0 -160 -76.5 -285.5t-205.5 -192.5t-285 -67q-190 0 -321 96l-154 -151l-121 119l148 145q-117 133 -117 336q0 160 76.5 285t204.5 191.5t284 66.5q193 0 328 -101l147 148zM762 748q-48 38 -121 38q-114 0 -181 -79t-67 -187
q0 -74 29 -117zM893 508q0 72 -27 119l-342 -344q44 -41 125 -41q114 0 179 78.5t65 187.5z" />
    <glyph glyph-name="ugrave" unicode="&#xf9;" horiz-adv-x="1257" 
d="M1126 0h-323v141h-4q-37 -71 -120.5 -120.5t-186.5 -49.5q-99 0 -173 36t-116 97t-62 132.5t-20 152.5v631h338v-553q0 -47 6.5 -83t22.5 -68t47 -49t75 -17q84 0 132.5 63.5t48.5 155.5v551h335v-1020zM836 1171h-254l-299 295h340z" />
    <glyph glyph-name="uacute" unicode="&#xfa;" horiz-adv-x="1257" 
d="M1126 0h-323v141h-4q-37 -71 -120.5 -120.5t-186.5 -49.5q-99 0 -173 36t-116 97t-62 132.5t-20 152.5v631h338v-553q0 -47 6.5 -83t22.5 -68t47 -49t75 -17q84 0 132.5 63.5t48.5 155.5v551h335v-1020zM1001 1466l-299 -295h-253l213 295h339z" />
    <glyph glyph-name="ucircumflex" unicode="&#xfb;" horiz-adv-x="1257" 
d="M1126 0h-323v141h-4q-37 -71 -120.5 -120.5t-186.5 -49.5q-99 0 -173 36t-116 97t-62 132.5t-20 152.5v631h338v-553q0 -47 6.5 -83t22.5 -68t47 -49t75 -17q84 0 132.5 63.5t48.5 155.5v551h335v-1020zM1034 1171h-266l-139 166l-140 -166h-262l254 295h303z" />
    <glyph glyph-name="udieresis" unicode="&#xfc;" horiz-adv-x="1257" 
d="M1126 0h-323v141h-4q-37 -71 -120.5 -120.5t-186.5 -49.5q-99 0 -173 36t-116 97t-62 132.5t-20 152.5v631h338v-553q0 -47 6.5 -83t22.5 -68t47 -49t75 -17q84 0 132.5 63.5t48.5 155.5v551h335v-1020zM1022 1348q0 -70 -50 -119t-120 -49q-72 0 -121 49t-49 119
q0 67 49.5 116t120.5 49q69 0 119.5 -48t50.5 -117zM578 1348q0 -70 -50.5 -119t-121.5 -49q-70 0 -120 49.5t-50 118.5q0 67 50 116t120 49q71 0 121.5 -48t50.5 -117z" />
    <glyph glyph-name="yacute" unicode="&#xfd;" horiz-adv-x="1161" 
d="M1163 1020l-456 -1174q-33 -84 -69.5 -143t-89 -105t-124.5 -68t-166 -22q-90 0 -184 23l37 283q63 -19 108 -19q73 0 109 32t63 105l33 84l-426 1004h373l227 -655h6l203 655h356zM999 1466l-299 -295h-254l213 295h340z" />
    <glyph glyph-name="thorn" unicode="&#xfe;" horiz-adv-x="1349" 
d="M1268 514q0 -145 -56 -267t-168.5 -199t-261.5 -77q-95 0 -180 39.5t-129 104.5h-4v-607h-334v2040h334v-637h6q116 138 311 138q108 0 200 -43.5t153 -117t95 -170.5t34 -204zM944 514q0 106 -64 183t-178 77q-109 0 -177 -79.5t-68 -182.5q0 -105 68 -183.5t177 -78.5
q77 0 133 39t82.5 97.5t26.5 127.5z" />
    <glyph glyph-name="ydieresis" unicode="&#xff;" horiz-adv-x="1161" 
d="M1163 1020l-456 -1174q-33 -84 -69.5 -143t-89 -105t-124.5 -68t-166 -22q-90 0 -184 23l37 283q63 -19 108 -19q73 0 109 32t63 105l33 84l-426 1004h373l227 -655h6l203 655h356zM993 1348q0 -70 -50 -119t-120 -49q-71 0 -120.5 49t-49.5 119q0 67 49.5 116t120.5 49
q69 0 119.5 -48t50.5 -117zM549 1348q0 -70 -50.5 -119t-121.5 -49q-70 0 -120 49.5t-50 118.5q0 67 50 116t120 49q71 0 121.5 -48t50.5 -117z" />
    <glyph glyph-name="Amacron" unicode="&#x100;" horiz-adv-x="1492" 
d="M1522 0h-389l-113 285h-561l-107 -285h-381l609 1450h340zM924 565l-181 498l-184 -498h365zM1090 1624h-689v176h689v-176z" />
    <glyph glyph-name="amacron" unicode="&#x101;" horiz-adv-x="1159" 
d="M733 410v34h-43q-63 0 -112 -5t-98 -18.5t-76 -43t-27 -72.5q0 -54 43 -79t102 -25q100 0 155.5 56.5t55.5 152.5zM287 698l-170 183q88 83 207.5 127.5t246.5 44.5q253 0 361 -128t108 -411v-514h-307v109h-6q-38 -62 -117.5 -98t-171.5 -36q-65 0 -127 17t-118 52.5
t-90.5 100t-34.5 150.5q0 344 655 344v16q0 72 -51 110t-133 38q-69 0 -136 -29.5t-116 -75.5zM930 1231h-688v176h688v-176z" />
    <glyph glyph-name="Abreve" unicode="&#x102;" horiz-adv-x="1492" 
d="M1522 0h-389l-113 285h-561l-107 -285h-381l609 1450h340zM924 565l-181 498l-184 -498h365zM1100 1860q-13 -152 -109.5 -223.5t-249.5 -71.5q-151 0 -247.5 71.5t-106.5 223.5h172q18 -113 184 -113q79 0 126 23.5t59 89.5h172z" />
    <glyph glyph-name="abreve" unicode="&#x103;" horiz-adv-x="1159" 
d="M733 410v34h-43q-63 0 -112 -5t-98 -18.5t-76 -43t-27 -72.5q0 -54 43 -79t102 -25q100 0 155.5 56.5t55.5 152.5zM287 698l-170 183q88 83 207.5 127.5t246.5 44.5q253 0 361 -128t108 -411v-514h-307v109h-6q-38 -62 -117.5 -98t-171.5 -36q-65 0 -127 17t-118 52.5
t-90.5 100t-34.5 150.5q0 344 655 344v16q0 72 -51 110t-133 38q-69 0 -136 -29.5t-116 -75.5zM942 1466q-13 -152 -109.5 -223.5t-248.5 -71.5q-151 0 -248 71.5t-107 223.5h172q11 -60 66 -90q48 -22 119 -22q79 0 125.5 23t58.5 89h172z" />
    <glyph glyph-name="Aogonek" unicode="&#x104;" horiz-adv-x="1492" 
d="M1393 -401q-110 -82 -236 -82q-59 0 -109.5 18t-86 61.5t-35.5 106.5q0 80 61 156.5t148 140.5h-2l-113 285h-561l-107 -285h-381l609 1450h340l602 -1450h-199q-184 -148 -184 -242q0 -32 21.5 -52.5t53.5 -20.5q56 0 113 41zM924 565l-181 498l-184 -498h365z" />
    <glyph glyph-name="aogonek" unicode="&#x105;" horiz-adv-x="1159" 
d="M983 -401q-110 -82 -235 -82q-43 0 -83 10.5t-74 32t-54.5 58.5t-20.5 85q0 81 64 160t153 141v105h-6q-38 -62 -117.5 -98t-171.5 -36q-65 0 -127 17t-118 52.5t-90.5 100t-34.5 150.5q0 344 655 344v16q0 72 -51 110t-133 38q-69 0 -136 -29.5t-116 -75.5l-170 183
q88 83 207.5 127.5t246.5 44.5q253 0 361 -128t108 -411v-514h-127q-184 -148 -184 -242q0 -32 21.5 -52.5t54.5 -20.5q56 0 113 41zM733 410v34h-43q-63 0 -112 -5t-98 -18.5t-76 -43t-27 -72.5q0 -54 43 -79t102 -25q100 0 155.5 56.5t55.5 152.5z" />
    <glyph glyph-name="Cacute" unicode="&#x106;" horiz-adv-x="1425" 
d="M1425 201q-98 -114 -241.5 -177t-321.5 -63q-166 0 -310 56t-247.5 155.5t-163 243t-59.5 311.5q0 227 104.5 402t282.5 267.5t399 92.5q158 0 306.5 -56t236.5 -157l-237 -238q-48 65 -127 99t-166 34q-182 0 -300 -125.5t-118 -318.5q0 -198 114.5 -321t296.5 -123
q100 0 180.5 40t127.5 107zM1227 1860l-299 -295h-254l213 295h340z" />
    <glyph glyph-name="cacute" unicode="&#x107;" horiz-adv-x="1030" 
d="M1028 915l-194 -225q-28 37 -78 59.5t-101 22.5q-103 0 -169 -76.5t-66 -185.5t66 -184.5t173 -75.5q53 0 103 20t80 56l186 -228q-63 -61 -163.5 -96t-213.5 -35q-162 0 -290.5 64.5t-204.5 189t-76 289.5q0 162 76.5 287t205 190.5t287.5 65.5q109 0 214 -38.5
t165 -99.5zM1030 1466l-299 -295h-254l213 295h340z" />
    <glyph glyph-name="Ccircumflex" unicode="&#x108;" horiz-adv-x="1425" 
d="M1425 201q-98 -114 -241.5 -177t-321.5 -63q-166 0 -310 56t-247.5 155.5t-163 243t-59.5 311.5q0 227 104.5 402t282.5 267.5t399 92.5q158 0 306.5 -56t236.5 -157l-237 -238q-48 65 -127 99t-166 34q-182 0 -300 -125.5t-118 -318.5q0 -198 114.5 -321t296.5 -123
q100 0 180.5 40t127.5 107zM1280 1565h-266l-140 166l-139 -166h-262l254 295h303z" />
    <glyph glyph-name="ccircumflex" unicode="&#x109;" horiz-adv-x="1030" 
d="M1028 915l-194 -225q-28 37 -78 59.5t-101 22.5q-103 0 -169 -76.5t-66 -185.5t66 -184.5t173 -75.5q53 0 103 20t80 56l186 -228q-63 -61 -163.5 -96t-213.5 -35q-162 0 -290.5 64.5t-204.5 189t-76 289.5q0 162 76.5 287t205 190.5t287.5 65.5q109 0 214 -38.5
t165 -99.5zM1057 1171h-266l-140 166l-139 -166h-262l254 295h303z" />
    <glyph glyph-name="Cdotaccent" unicode="&#x10a;" horiz-adv-x="1425" 
d="M1425 201q-98 -114 -241.5 -177t-321.5 -63q-166 0 -310 56t-247.5 155.5t-163 243t-59.5 311.5q0 227 104.5 402t282.5 267.5t399 92.5q158 0 306.5 -56t236.5 -157l-237 -238q-48 65 -127 99t-166 34q-182 0 -300 -125.5t-118 -318.5q0 -198 114.5 -321t296.5 -123
q100 0 180.5 40t127.5 107zM1055 1739q0 -73 -54 -123.5t-131 -50.5q-76 0 -129 51.5t-53 122.5t53 123.5t129 52.5q77 0 131 -51.5t54 -124.5z" />
    <glyph glyph-name="cdotaccent" unicode="&#x10b;" horiz-adv-x="1030" 
d="M1028 915l-194 -225q-28 37 -78 59.5t-101 22.5q-103 0 -169 -76.5t-66 -185.5t66 -184.5t173 -75.5q53 0 103 20t80 56l186 -228q-63 -61 -163.5 -96t-213.5 -35q-162 0 -290.5 64.5t-204.5 189t-76 289.5q0 162 76.5 287t205 190.5t287.5 65.5q109 0 214 -38.5
t165 -99.5zM840 1346q0 -73 -54 -124t-131 -51q-76 0 -129 52t-53 123t53 123.5t129 52.5q77 0 131 -51.5t54 -124.5z" />
    <glyph glyph-name="Ccaron" unicode="&#x10c;" horiz-adv-x="1425" 
d="M1425 201q-98 -114 -241.5 -177t-321.5 -63q-166 0 -310 56t-247.5 155.5t-163 243t-59.5 311.5q0 227 104.5 402t282.5 267.5t399 92.5q158 0 306.5 -56t236.5 -157l-237 -238q-48 65 -127 99t-166 34q-182 0 -300 -125.5t-118 -318.5q0 -198 114.5 -321t296.5 -123
q100 0 180.5 40t127.5 107zM1278 1860l-252 -295h-301l-254 295h266l140 -166l139 166h262z" />
    <glyph glyph-name="ccaron" unicode="&#x10d;" horiz-adv-x="1030" 
d="M1028 915l-194 -225q-28 37 -78 59.5t-101 22.5q-103 0 -169 -76.5t-66 -185.5t66 -184.5t173 -75.5q53 0 103 20t80 56l186 -228q-63 -61 -163.5 -96t-213.5 -35q-162 0 -290.5 64.5t-204.5 189t-76 289.5q0 162 76.5 287t205 190.5t287.5 65.5q109 0 214 -38.5
t165 -99.5zM1053 1466l-252 -295h-301l-254 295h266l139 -166l140 166h262z" />
    <glyph glyph-name="Dcaron" unicode="&#x10e;" horiz-adv-x="1585" 
d="M1503 729q0 -148 -46.5 -271t-124.5 -206.5t-183.5 -141t-220.5 -84t-238 -26.5h-540v1450h524q130 0 245 -21.5t224 -74.5t187.5 -133.5t125.5 -206.5t47 -285zM1139 729q0 95 -26.5 169t-70 121t-105.5 77t-128.5 42.5t-142.5 12.5h-174v-848h165q78 0 146.5 13t131 44
t107 78.5t71 122t26.5 168.5zM1135 1860l-252 -295h-301l-254 295h266l139 -166l139 166h263z" />
    <glyph glyph-name="dcaron" unicode="&#x10f;" horiz-adv-x="1619" 
d="M1212 0h-309v133h-4q-49 -75 -140 -118.5t-194 -43.5q-148 0 -260.5 77t-168.5 199t-56 267q0 107 34 204t94.5 170.5t152.5 117t200 43.5q104 0 183 -39.5t128 -98.5h5v637h335v-1548zM891 512q0 103 -68.5 182.5t-177.5 79.5q-114 0 -178 -77t-64 -183
q0 -69 26.5 -127.5t82.5 -97.5t133 -39q109 0 177.5 78.5t68.5 183.5zM1704 1450l-176 -399h-258l137 399h297z" />
    <glyph glyph-name="Dcroat" unicode="&#x110;" horiz-adv-x="1585" 
d="M1499 729q0 -146 -45.5 -268t-122.5 -206t-179.5 -142.5t-214 -85.5t-228.5 -27h-557v633h-125v219h125v598h559q127 0 240.5 -25t214.5 -80.5t174.5 -138t116 -205t42.5 -272.5zM1141 729q0 208 -125 312t-338 104h-184v-293h370v-219h-370v-326h151q110 0 198.5 24
t156 73.5t104.5 132t37 192.5z" />
    <glyph glyph-name="dcroat" unicode="&#x111;" horiz-adv-x="1347" 
d="M1212 0h-309v133h-4q-49 -75 -140 -118.5t-194 -43.5q-148 0 -260.5 77t-168.5 199t-56 267q0 107 34 204t94.5 170.5t152.5 117t200 43.5q104 0 183 -39.5t128 -98.5h5v256h-306v183h306v198h335v-198h95v-183h-95v-1167zM891 512q0 103 -68.5 182.5t-177.5 79.5
q-114 0 -178 -77t-64 -183q0 -69 26.5 -127.5t82.5 -97.5t133 -39q109 0 177.5 78.5t68.5 183.5z" />
    <glyph glyph-name="Emacron" unicode="&#x112;" horiz-adv-x="1243" 
d="M1161 0h-1011v1450h974v-297h-637v-272h603v-281h-603v-301h674v-299zM979 1624h-688v176h688v-176z" />
    <glyph glyph-name="emacron" unicode="&#x113;" horiz-adv-x="1220" 
d="M401 627h433q0 84 -52.5 139t-148.5 55q-95 0 -160.5 -57t-71.5 -137zM1143 498q0 -55 -2 -80h-740q7 -83 79 -138t165 -55q146 0 225 107l234 -148q-73 -105 -191 -161t-272 -56q-156 0 -281.5 62t-202.5 186t-77 291q0 163 73.5 289t198 192t279.5 66q229 0 370.5 -149
t141.5 -406zM983 1231h-688v176h688v-176z" />
    <glyph glyph-name="Ebreve" unicode="&#x114;" horiz-adv-x="1243" 
d="M1161 0h-1011v1450h974v-297h-637v-272h603v-281h-603v-301h674v-299zM991 1860q-13 -152 -109.5 -223.5t-248.5 -71.5q-151 0 -247.5 71.5t-106.5 223.5h172q18 -113 184 -113q79 0 125.5 23.5t58.5 89.5h172z" />
    <glyph glyph-name="ebreve" unicode="&#x115;" horiz-adv-x="1220" 
d="M401 627h433q0 84 -52.5 139t-148.5 55q-95 0 -160.5 -57t-71.5 -137zM1143 498q0 -55 -2 -80h-740q7 -83 79 -138t165 -55q146 0 225 107l234 -148q-73 -105 -191 -161t-272 -56q-156 0 -281.5 62t-202.5 186t-77 291q0 163 73.5 289t198 192t279.5 66q229 0 370.5 -149
t141.5 -406zM995 1466q-13 -152 -109.5 -223.5t-248.5 -71.5q-151 0 -247.5 71.5t-106.5 223.5h172q11 -61 65 -90q48 -22 119 -22q79 0 125.5 23t58.5 89h172z" />
    <glyph glyph-name="Edotaccent" unicode="&#x116;" horiz-adv-x="1243" 
d="M1161 0h-1011v1450h974v-297h-637v-272h603v-281h-603v-301h674v-299zM819 1739q0 -73 -53.5 -123.5t-130.5 -50.5q-76 0 -129 51.5t-53 122.5t53 123.5t129 52.5q77 0 130.5 -51.5t53.5 -124.5z" />
    <glyph glyph-name="edotaccent" unicode="&#x117;" horiz-adv-x="1220" 
d="M401 627h433q0 84 -52.5 139t-148.5 55q-95 0 -160.5 -57t-71.5 -137zM1143 498q0 -55 -2 -80h-740q7 -83 79 -138t165 -55q146 0 225 107l234 -148q-73 -105 -191 -161t-272 -56q-156 0 -281.5 62t-202.5 186t-77 291q0 163 73.5 289t198 192t279.5 66q229 0 370.5 -149
t141.5 -406zM821 1346q0 -73 -53.5 -124t-130.5 -51q-76 0 -129 52t-53 123t53 123.5t129 52.5q77 0 130.5 -51.5t53.5 -124.5z" />
    <glyph glyph-name="Eogonek" unicode="&#x118;" horiz-adv-x="1243" 
d="M1196 -401q-110 -82 -235 -82q-43 0 -83 10.5t-74 32t-54.5 58.5t-20.5 85q0 80 61 156.5t148 140.5h-788v1450h974v-297h-637v-272h603v-281h-603v-301h674v-299h-35q-184 -148 -184 -242q0 -32 21.5 -52.5t54.5 -20.5q55 0 112 41z" />
    <glyph glyph-name="eogonek" unicode="&#x119;" horiz-adv-x="1220" 
d="M889 -401q-110 -82 -236 -82q-59 0 -109.5 18t-86 61.5t-35.5 106.5q0 126 168 266q-144 9 -258.5 73.5t-183 185t-68.5 278.5q0 163 73.5 289t198 192t279.5 66q229 0 370.5 -149t141.5 -406q0 -55 -2 -80h-740q7 -83 79 -138t165 -55q146 0 225 107l234 -148
q-106 -154 -305 -198q-164 -139 -164 -228q0 -32 21.5 -52.5t54.5 -20.5q55 0 112 41zM401 627h433q0 84 -52.5 139t-148.5 55q-95 0 -160.5 -57t-71.5 -137z" />
    <glyph glyph-name="Ecaron" unicode="&#x11a;" horiz-adv-x="1243" 
d="M1161 0h-1011v1450h974v-297h-637v-272h603v-281h-603v-301h674v-299zM1040 1860l-252 -295h-301l-254 295h267l139 -166l139 166h262z" />
    <glyph glyph-name="ecaron" unicode="&#x11b;" horiz-adv-x="1220" 
d="M401 627h433q0 84 -52.5 139t-148.5 55q-95 0 -160.5 -57t-71.5 -137zM1143 498q0 -55 -2 -80h-740q7 -83 79 -138t165 -55q146 0 225 107l234 -148q-73 -105 -191 -161t-272 -56q-156 0 -281.5 62t-202.5 186t-77 291q0 163 73.5 289t198 192t279.5 66q229 0 370.5 -149
t141.5 -406zM1042 1466l-251 -295h-302l-253 295h266l139 -166l139 166h262z" />
    <glyph glyph-name="Gcircumflex" unicode="&#x11c;" horiz-adv-x="1574" 
d="M1438 88q-238 -125 -559 -125q-230 0 -411 95t-283.5 269.5t-102.5 399.5q0 227 104.5 402t282.5 267.5t399 92.5q169 0 318 -52t241 -141l-221 -252q-53 61 -138 98.5t-187 37.5q-184 0 -305 -129t-121 -324q0 -205 116.5 -331t325.5 -126q131 0 219 39v264h-276v283
h598v-768zM1288 1565h-266l-139 166l-140 -166h-262l254 295h303z" />
    <glyph glyph-name="gcircumflex" unicode="&#x11d;" horiz-adv-x="1347" 
d="M1212 96q0 -291 -160 -439.5t-440 -148.5q-137 0 -280.5 42.5t-243.5 117.5l168 240q72 -63 160.5 -96t177.5 -33q143 0 216 76t73 208v62h-6q-48 -63 -129 -99t-181 -36q-113 0 -206 42t-154 114t-94 166.5t-33 201.5q0 144 56 264t168.5 195.5t260.5 75.5
q100 0 187 -40.5t139 -119.5h4v131h317v-924zM893 516q0 108 -68.5 183t-179.5 75q-110 0 -174.5 -74t-64.5 -184q0 -107 65 -183.5t174 -76.5q112 0 180 76t68 184zM1059 1171h-266l-140 166l-139 -166h-262l254 295h303z" />
    <glyph glyph-name="Gbreve" unicode="&#x11e;" horiz-adv-x="1574" 
d="M1438 88q-238 -125 -559 -125q-230 0 -411 95t-283.5 269.5t-102.5 399.5q0 227 104.5 402t282.5 267.5t399 92.5q169 0 318 -52t241 -141l-221 -252q-53 61 -138 98.5t-187 37.5q-184 0 -305 -129t-121 -324q0 -205 116.5 -331t325.5 -126q131 0 219 39v264h-276v283
h598v-768zM1249 1860q-13 -152 -109.5 -223.5t-248.5 -71.5q-151 0 -247.5 71.5t-106.5 223.5h172q18 -113 184 -113q79 0 125.5 23.5t58.5 89.5h172z" />
    <glyph glyph-name="gbreve" unicode="&#x11f;" horiz-adv-x="1347" 
d="M1212 96q0 -291 -160 -439.5t-440 -148.5q-137 0 -280.5 42.5t-243.5 117.5l168 240q72 -63 160.5 -96t177.5 -33q143 0 216 76t73 208v62h-6q-48 -63 -129 -99t-181 -36q-113 0 -206 42t-154 114t-94 166.5t-33 201.5q0 144 56 264t168.5 195.5t260.5 75.5
q100 0 187 -40.5t139 -119.5h4v131h317v-924zM893 516q0 108 -68.5 183t-179.5 75q-110 0 -174.5 -74t-64.5 -184q0 -107 65 -183.5t174 -76.5q112 0 180 76t68 184zM1022 1466q-13 -152 -109.5 -223.5t-248.5 -71.5q-151 0 -248 71.5t-107 223.5h172q11 -60 66 -90
q48 -22 119 -22q79 0 125.5 23t58.5 89h172z" />
    <glyph glyph-name="Gdotaccent" unicode="&#x120;" horiz-adv-x="1574" 
d="M1438 88q-238 -125 -559 -125q-230 0 -411 95t-283.5 269.5t-102.5 399.5q0 227 104.5 402t282.5 267.5t399 92.5q169 0 318 -52t241 -141l-221 -252q-53 61 -138 98.5t-187 37.5q-184 0 -305 -129t-121 -324q0 -205 116.5 -331t325.5 -126q131 0 219 39v264h-276v283
h598v-768zM1067 1739q0 -73 -53.5 -123.5t-130.5 -50.5q-76 0 -129.5 51.5t-53.5 122.5t53.5 123.5t129.5 52.5q77 0 130.5 -51.5t53.5 -124.5z" />
    <glyph glyph-name="gdotaccent" unicode="&#x121;" horiz-adv-x="1347" 
d="M1212 96q0 -291 -160 -439.5t-440 -148.5q-137 0 -280.5 42.5t-243.5 117.5l168 240q72 -63 160.5 -96t177.5 -33q143 0 216 76t73 208v62h-6q-48 -63 -129 -99t-181 -36q-113 0 -206 42t-154 114t-94 166.5t-33 201.5q0 144 56 264t168.5 195.5t260.5 75.5
q100 0 187 -40.5t139 -119.5h4v131h317v-924zM893 516q0 108 -68.5 183t-179.5 75q-110 0 -174.5 -74t-64.5 -184q0 -107 65 -183.5t174 -76.5q112 0 180 76t68 184zM842 1346q0 -73 -54 -124t-131 -51q-76 0 -129 52t-53 123t53 123.5t129 52.5q77 0 131 -51.5t54 -124.5z
" />
    <glyph glyph-name="Gcommaaccent" unicode="&#x122;" horiz-adv-x="1574" 
d="M1438 88q-238 -125 -559 -125q-230 0 -411 95t-283.5 269.5t-102.5 399.5q0 227 104.5 402t282.5 267.5t399 92.5q169 0 318 -52t241 -141l-221 -252q-53 61 -138 98.5t-187 37.5q-184 0 -305 -129t-121 -324q0 -205 116.5 -331t325.5 -126q131 0 219 39v264h-276v283
h598v-768zM1036 -92l-176 -400h-258l137 400h297z" />
    <glyph glyph-name="gcommaaccent" unicode="&#x123;" horiz-adv-x="1347" 
d="M1212 96q0 -291 -160 -439.5t-440 -148.5q-137 0 -280.5 42.5t-243.5 117.5l168 240q72 -63 160.5 -96t177.5 -33q143 0 216 76t73 208v62h-6q-48 -63 -129 -99t-181 -36q-113 0 -206 42t-154 114t-94 166.5t-33 201.5q0 144 56 264t168.5 195.5t260.5 75.5
q100 0 187 -40.5t139 -119.5h4v131h317v-924zM893 516q0 108 -68.5 183t-179.5 75q-110 0 -174.5 -74t-64.5 -184q0 -107 65 -183.5t174 -76.5q112 0 180 76t68 184zM506 1171l176 400h258l-137 -400h-297z" />
    <glyph glyph-name="Hcircumflex" unicode="&#x124;" horiz-adv-x="1564" 
d="M1415 0h-350v606h-565v-606h-350v1450h350v-549h565v549h350v-1450zM1192 1565h-266l-140 166l-139 -166h-262l254 295h303z" />
    <glyph glyph-name="hcircumflex" unicode="&#x125;" horiz-adv-x="1263" 
d="M1141 0h-338v553q0 215 -150 215q-85 0 -133.5 -61.5t-48.5 -155.5v-551h-336v1548h336v-657h4q36 66 114.5 112t178.5 46q99 0 174 -36t117 -97t62 -132.5t20 -152.5v-631zM1049 1630h-267l-139 166l-139 -166h-262l254 295h303z" />
    <glyph glyph-name="Hbar" unicode="&#x126;" horiz-adv-x="1564" 
d="M1415 0h-350v606h-565v-606h-350v1450h350v-244h565v244h350v-1450zM500 901h565v123h-565v-123z" />
    <glyph glyph-name="hbar" unicode="&#x127;" horiz-adv-x="1263" 
d="M1141 0h-338v553q0 215 -150 215q-85 0 -133.5 -61.5t-48.5 -155.5v-551h-336v1167h-94v183h94v198h336v-198h305v-183h-305v-276h4q36 66 114.5 112t178.5 46q99 0 174 -36t117 -97t62 -132.5t20 -152.5v-631z" />
    <glyph glyph-name="Itilde" unicode="&#x128;" horiz-adv-x="651" 
d="M502 0h-352v1450h352v-1450zM707 1843q-13 -119 -70 -194.5t-162 -75.5q-75 0 -166 43q-78 41 -129 41q-63 0 -86 -82h-147q7 56 23 101.5t42.5 83.5t69 59.5t96.5 21.5q77 0 164 -41t133 -41q65 0 86 84h146z" />
    <glyph glyph-name="itilde" unicode="&#x129;" horiz-adv-x="606" 
d="M471 0h-336v1020h336v-1020zM686 1450q-13 -119 -69.5 -194.5t-161.5 -75.5q-75 0 -166 43q-78 41 -129 41q-63 0 -86 -82h-148q7 56 23 101.5t43 83.5t69.5 59.5t96.5 21.5q77 0 164 -41t133 -41q65 0 86 84h145z" />
    <glyph glyph-name="Imacron" unicode="&#x12a;" horiz-adv-x="651" 
d="M502 0h-352v1450h352v-1450zM668 1624h-688v176h688v-176z" />
    <glyph glyph-name="imacron" unicode="&#x12b;" horiz-adv-x="606" 
d="M471 0h-336v1020h336v-1020zM651 1231h-688v176h688v-176z" />
    <glyph glyph-name="Iogonek" unicode="&#x12e;" horiz-adv-x="651" 
d="M549 -401q-110 -82 -236 -82q-59 0 -109.5 18t-86 61.5t-35.5 106.5q0 80 61 156.5t148 140.5h-141v1450h352v-1450h-23q-184 -148 -184 -242q0 -32 21.5 -52.5t54.5 -20.5q55 0 112 41z" />
    <glyph glyph-name="iogonek" unicode="&#x12f;" horiz-adv-x="606" 
d="M510 -401q-110 -82 -236 -82q-59 0 -109.5 18t-86 61.5t-35.5 106.5q0 80 61 156.5t148 140.5h-117v1020h336v-1020h-31q-184 -148 -184 -242q0 -32 21.5 -52.5t54.5 -20.5q55 0 112 41zM496 1346q0 -78 -56.5 -131.5t-136.5 -53.5q-81 0 -136.5 54.5t-55.5 130.5
q0 75 55.5 129.5t136.5 54.5q80 0 136.5 -54t56.5 -130z" />
    <glyph glyph-name="Idotaccent" unicode="&#x130;" horiz-adv-x="651" 
d="M502 0h-352v1450h352v-1450zM510 1739q0 -73 -53.5 -123.5t-130.5 -50.5q-76 0 -129.5 51.5t-53.5 122.5t53.5 123.5t129.5 52.5q77 0 130.5 -51.5t53.5 -124.5z" />
    <glyph glyph-name="dotlessi" unicode="&#x131;" horiz-adv-x="606" 
d="M471 0h-336v1020h336v-1020z" />
    <glyph glyph-name="Jcircumflex" unicode="&#x134;" horiz-adv-x="1083" 
d="M942 496q0 -76 -11 -144.5t-43.5 -142t-83.5 -126.5t-138 -87.5t-201 -34.5q-179 0 -304.5 93.5t-166.5 246.5l309 105q14 -58 52.5 -92.5t93.5 -34.5q81 0 111 55t30 160v956h352v-954zM1167 1565h-266l-139 166l-139 -166h-263l254 295h304z" />
    <glyph glyph-name="jcircumflex" unicode="&#x135;" horiz-adv-x="612" 
d="M477 -27q0 -81 -10.5 -146t-38 -126t-72.5 -102.5t-117.5 -66t-168.5 -24.5q-83 0 -146 17l23 280q31 -10 71 -10q69 0 96 46t27 132v1047h336v-1047zM709 1171h-267l-139 166l-139 -166h-262l254 295h303z" />
    <glyph glyph-name="Kcommaaccent" unicode="&#x136;" horiz-adv-x="1456" 
d="M1493 0h-457l-538 668h-4v-668h-344v1450h344v-590h6l518 590h438l-625 -668zM907 -92l-176 -400h-258l137 400h297z" />
    <glyph glyph-name="kcommaaccent" unicode="&#x137;" horiz-adv-x="1218" 
d="M817 559l410 -559h-416l-334 489h-6v-489h-338v1548h338v-942h6l326 414h407zM788 -92l-176 -400h-258l138 400h296z" />
    <glyph glyph-name="Lacute" unicode="&#x139;" horiz-adv-x="1077" 
d="M1063 0h-913v1450h352v-1145h561v-305zM748 1860l-299 -295h-254l213 295h340z" />
    <glyph glyph-name="lacute" unicode="&#x13a;" horiz-adv-x="610" 
d="M475 0h-340v1548h340v-1548zM688 1917l-299 -295h-254l213 295h340z" />
    <glyph glyph-name="Lcommaaccent" unicode="&#x13b;" horiz-adv-x="1077" 
d="M1063 0h-913v1450h352v-1145h561v-305zM750 -92l-177 -400h-258l138 400h297z" />
    <glyph glyph-name="lcommaaccent" unicode="&#x13c;" horiz-adv-x="610" 
d="M475 0h-340v1548h340v-1548zM457 -92l-176 -400h-258l137 400h297z" />
    <glyph glyph-name="Lcaron" unicode="&#x13d;" horiz-adv-x="1077" 
d="M1063 0h-913v1450h352v-1145h561v-305zM995 1450l-176 -399h-258l137 399h297z" />
    <glyph glyph-name="lcaron" unicode="&#x13e;" horiz-adv-x="884" 
d="M475 0h-340v1548h340v-1548zM969 1450l-176 -399h-258l137 399h297z" />
    <glyph glyph-name="Ldot" unicode="&#x13f;" horiz-adv-x="1077" 
d="M1063 0h-913v1450h352v-1145h561v-305zM979 895q0 -73 -53.5 -123.5t-130.5 -50.5q-76 0 -129.5 51.5t-53.5 122.5t53.5 123.5t129.5 52.5q77 0 130.5 -51.5t53.5 -124.5z" />
    <glyph glyph-name="ldot" unicode="&#x140;" horiz-adv-x="917" 
d="M475 0h-340v1548h340v-1548zM918 956q0 -73 -54 -123.5t-131 -50.5q-76 0 -129 51.5t-53 122.5t53 124t129 53q77 0 131 -52t54 -125z" />
    <glyph glyph-name="Lslash" unicode="&#x141;" horiz-adv-x="1077" 
d="M1063 0h-913v362l-132 -114v291l132 114v797h352v-537l391 342v-288l-391 -342v-320h561v-305z" />
    <glyph glyph-name="lslash" unicode="&#x142;" horiz-adv-x="610" 
d="M594 930l-119 -115v-815h-340v547l-119 -115v293l119 117v706h340v-444l119 117v-291z" />
    <glyph glyph-name="Nacute" unicode="&#x143;" horiz-adv-x="1617" 
d="M1468 0h-397l-584 948h-6l8 -948h-339v1450h399l581 -946h7l-9 946h340v-1450zM1204 1860l-299 -295h-254l213 295h340z" />
    <glyph glyph-name="nacute" unicode="&#x144;" horiz-adv-x="1261" 
d="M1139 0h-338v557q0 215 -152 215q-85 0 -132.5 -63t-47.5 -156v-553h-338v1020h326v-141h4q37 71 120.5 120.5t184.5 49.5q99 0 173.5 -36t116.5 -97t62.5 -132.5t20.5 -152.5v-631zM991 1466l-299 -295h-254l213 295h340z" />
    <glyph glyph-name="Ncommaaccent" unicode="&#x145;" horiz-adv-x="1617" 
d="M1468 0h-397l-584 948h-6l8 -948h-339v1450h399l581 -946h7l-9 946h340v-1450zM952 -92l-176 -400h-258l137 400h297z" />
    <glyph glyph-name="ncommaaccent" unicode="&#x146;" horiz-adv-x="1261" 
d="M1139 0h-338v557q0 215 -152 215q-85 0 -132.5 -63t-47.5 -156v-553h-338v1020h326v-141h4q37 71 120.5 120.5t184.5 49.5q99 0 173.5 -36t116.5 -97t62.5 -132.5t20.5 -152.5v-631zM776 -92l-176 -400h-258l137 400h297z" />
    <glyph glyph-name="Ncaron" unicode="&#x147;" horiz-adv-x="1617" 
d="M1468 0h-397l-584 948h-6l8 -948h-339v1450h399l581 -946h7l-9 946h340v-1450zM1219 1860l-252 -295h-301l-254 295h266l139 -166l139 166h263z" />
    <glyph glyph-name="ncaron" unicode="&#x148;" horiz-adv-x="1261" 
d="M1139 0h-338v557q0 215 -152 215q-85 0 -132.5 -63t-47.5 -156v-553h-338v1020h326v-141h4q37 71 120.5 120.5t184.5 49.5q99 0 173.5 -36t116.5 -97t62.5 -132.5t20.5 -152.5v-631zM1038 1466l-252 -295h-301l-254 295h267l139 -166l139 166h262z" />
    <glyph glyph-name="Omacron" unicode="&#x14c;" horiz-adv-x="1742" 
d="M1661 731q0 -226 -102.5 -402t-282.5 -272t-406 -96q-135 0 -256 35.5t-217.5 103.5t-167.5 161.5t-109 213.5t-38 256q0 228 102.5 401.5t281 265t404.5 91.5q227 0 406 -91.5t282 -265t103 -401.5zM1286 731q0 192 -116.5 317.5t-299.5 125.5t-298 -125.5t-115 -317.5
q0 -197 115.5 -323.5t297.5 -126.5q183 0 299.5 126.5t116.5 323.5zM1210 1624h-688v176h688v-176z" />
    <glyph glyph-name="omacron" unicode="&#x14d;" horiz-adv-x="1294" 
d="M1212 514q0 -162 -77.5 -288.5t-206 -192.5t-283.5 -66q-154 0 -282 66t-205.5 192.5t-77.5 288.5q0 122 45 224.5t122.5 170.5t180 106t217.5 38q116 0 219 -38t180.5 -106t122.5 -170.5t45 -224.5zM889 514q0 105 -65.5 182.5t-178.5 77.5q-112 0 -175.5 -77
t-63.5 -183t64.5 -185t176.5 -79t177 79t65 185zM989 1231h-688v176h688v-176z" />
    <glyph glyph-name="Obreve" unicode="&#x14e;" horiz-adv-x="1742" 
d="M1661 731q0 -226 -102.5 -402t-282.5 -272t-406 -96q-135 0 -256 35.5t-217.5 103.5t-167.5 161.5t-109 213.5t-38 256q0 228 102.5 401.5t281 265t404.5 91.5q227 0 406 -91.5t282 -265t103 -401.5zM1286 731q0 192 -116.5 317.5t-299.5 125.5t-298 -125.5t-115 -317.5
q0 -197 115.5 -323.5t297.5 -126.5q183 0 299.5 126.5t116.5 323.5zM1225 1860q-13 -152 -109.5 -223.5t-249.5 -71.5q-151 0 -247.5 71.5t-106.5 223.5h172q18 -113 184 -113q79 0 126 23.5t59 89.5h172z" />
    <glyph glyph-name="obreve" unicode="&#x14f;" horiz-adv-x="1294" 
d="M1212 514q0 -162 -77.5 -288.5t-206 -192.5t-283.5 -66q-154 0 -282 66t-205.5 192.5t-77.5 288.5q0 122 45 224.5t122.5 170.5t180 106t217.5 38q116 0 219 -38t180.5 -106t122.5 -170.5t45 -224.5zM889 514q0 105 -65.5 182.5t-178.5 77.5q-112 0 -175.5 -77
t-63.5 -183t64.5 -185t176.5 -79t177 79t65 185zM999 1466q-13 -152 -109.5 -223.5t-248.5 -71.5q-151 0 -247.5 71.5t-106.5 223.5h172q11 -61 65 -90q48 -22 119 -22q79 0 125.5 23t58.5 89h172z" />
    <glyph glyph-name="Ohungarumlaut" unicode="&#x150;" horiz-adv-x="1742" 
d="M1661 731q0 -226 -102.5 -402t-282.5 -272t-406 -96q-135 0 -256 35.5t-217.5 103.5t-167.5 161.5t-109 213.5t-38 256q0 228 102.5 401.5t281 265t404.5 91.5q227 0 406 -91.5t282 -265t103 -401.5zM1286 731q0 192 -116.5 317.5t-299.5 125.5t-298 -125.5t-115 -317.5
q0 -197 115.5 -323.5t297.5 -126.5q183 0 299.5 126.5t116.5 323.5zM1505 1860l-299 -295h-254l213 295h340zM1055 1860l-299 -295h-254l213 295h340z" />
    <glyph glyph-name="ohungarumlaut" unicode="&#x151;" horiz-adv-x="1294" 
d="M1212 514q0 -162 -77.5 -288.5t-206 -192.5t-283.5 -66q-154 0 -282 66t-205.5 192.5t-77.5 288.5q0 122 45 224.5t122.5 170.5t180 106t217.5 38q116 0 219 -38t180.5 -106t122.5 -170.5t45 -224.5zM889 514q0 105 -65.5 182.5t-178.5 77.5q-112 0 -175.5 -77
t-63.5 -183t64.5 -185t176.5 -79t177 79t65 185zM1296 1466l-299 -295h-254l213 295h340zM846 1466l-299 -295h-254l213 295h340z" />
    <glyph glyph-name="OE" unicode="&#x152;" horiz-adv-x="2086" 
d="M2005 0h-1100q-127 0 -243.5 24.5t-223 80.5t-185 138.5t-125 206.5t-46.5 277q0 154 46.5 278t124.5 206t185.5 136.5t223.5 78.5t243 24h1065v-297h-610v-272h575v-281h-575v-301h645v-299zM1026 299v854h-94q-78 0 -144.5 -12t-129 -43t-106.5 -78.5t-70.5 -124
t-26.5 -174.5q0 -90 26.5 -162.5t70.5 -120t105 -79.5t127.5 -46t139.5 -14h102z" />
    <glyph glyph-name="oe" unicode="&#x153;" horiz-adv-x="1992" 
d="M406 514q0 -108 63.5 -186t175.5 -78t177 78.5t65 185.5q0 104 -65 182t-177 78t-175.5 -77.5t-63.5 -182.5zM1174 627h432q0 84 -52.5 139t-148.5 55q-95 0 -160 -57t-71 -137zM1642 332l232 -148q-71 -105 -189 -161t-272 -56q-126 0 -229 46.5t-162 123.5
q-62 -79 -160 -124.5t-221 -45.5q-116 0 -218 38.5t-178.5 108.5t-120.5 173.5t-44 226.5q0 162 76 286t203 188.5t282 64.5q121 0 222.5 -49t160.5 -130q68 80 166.5 129.5t216.5 49.5q227 0 367.5 -149t140.5 -406q0 -55 -2 -80h-739q10 -85 80.5 -139t162.5 -54
q146 0 225 107z" />
    <glyph glyph-name="Racute" unicode="&#x154;" horiz-adv-x="1357" 
d="M1335 0h-409l-314 575h-118v-575h-344v1450h552q88 0 165.5 -13.5t150 -45.5t124.5 -81t83.5 -125.5t31.5 -172.5q0 -144 -80 -246t-221 -145zM911 1006q0 161 -233 161h-186v-338h165q48 0 88.5 7.5t80 25.5t62.5 55t23 89zM1016 1860l-299 -295h-254l213 295h340z" />
    <glyph glyph-name="racute" unicode="&#x155;" horiz-adv-x="811" 
d="M807 1040l-14 -295q-43 11 -86 11q-64 0 -113 -24t-75 -61t-39 -74.5t-13 -72.5v-524h-336v1020h324v-148h4q40 80 112.5 128.5t163.5 48.5q48 0 72 -9zM772 1466l-299 -295h-254l213 295h340z" />
    <glyph glyph-name="Rcommaaccent" unicode="&#x156;" horiz-adv-x="1357" 
d="M1335 0h-409l-314 575h-118v-575h-344v1450h552q88 0 165.5 -13.5t150 -45.5t124.5 -81t83.5 -125.5t31.5 -172.5q0 -144 -80 -246t-221 -145zM911 1006q0 161 -233 161h-186v-338h165q48 0 88.5 7.5t80 25.5t62.5 55t23 89zM846 -92l-176 -400h-258l137 400h297z" />
    <glyph glyph-name="rcommaaccent" unicode="&#x157;" horiz-adv-x="811" 
d="M807 1040l-14 -295q-43 11 -86 11q-64 0 -113 -24t-75 -61t-39 -74.5t-13 -72.5v-524h-336v1020h324v-148h4q40 80 112.5 128.5t163.5 48.5q48 0 72 -9zM459 -94l-176 -400h-258l137 400h297z" />
    <glyph glyph-name="Rcaron" unicode="&#x158;" horiz-adv-x="1357" 
d="M1335 0h-409l-314 575h-118v-575h-344v1450h552q88 0 165.5 -13.5t150 -45.5t124.5 -81t83.5 -125.5t31.5 -172.5q0 -144 -80 -246t-221 -145zM911 1006q0 161 -233 161h-186v-338h165q48 0 88.5 7.5t80 25.5t62.5 55t23 89zM1059 1860l-252 -295h-301l-254 295h266
l139 -166l140 166h262z" />
    <glyph glyph-name="rcaron" unicode="&#x159;" horiz-adv-x="811" 
d="M807 1040l-14 -295q-43 11 -86 11q-64 0 -113 -24t-75 -61t-39 -74.5t-13 -72.5v-524h-336v1020h324v-148h4q40 80 112.5 128.5t163.5 48.5q48 0 72 -9zM870 1466l-252 -295h-301l-254 295h267l139 -166l139 166h262z" />
    <glyph glyph-name="Sacute" unicode="&#x15a;" horiz-adv-x="1210" 
d="M1139 1309l-224 -236q-43 56 -116 90.5t-142 34.5q-51 0 -93.5 -11.5t-75.5 -45.5t-33 -88q0 -28 11 -50.5t27 -38t48.5 -31t60 -25.5t76.5 -25q55 -18 88 -29.5t86.5 -34t86.5 -44t73 -56t62.5 -72t38 -89.5t15.5 -112q0 -121 -46 -215.5t-124.5 -152t-176 -86.5
t-208.5 -29q-157 0 -302.5 55t-239.5 154l229 234q53 -67 140.5 -110.5t172.5 -43.5q88 0 144.5 38t56.5 120q0 76 -80 122q-50 29 -213 81l-1 1h-1h-1l-1 1h-1h-1l-1 1h-1q-51 16 -92 33.5t-85.5 42t-77.5 56.5t-60.5 72.5t-41.5 94t-14 117.5q0 93 32.5 170.5t87.5 129
t128 87.5t152 52t162 16q127 0 254.5 -46.5t220.5 -131.5zM997 1860l-299 -295h-254l213 295h340z" />
    <glyph glyph-name="sacute" unicode="&#x15b;" horiz-adv-x="966" 
d="M915 909l-184 -190q-96 92 -213 92q-53 0 -90 -20.5t-37 -61.5q0 -40 39 -59t148 -43q325 -73 325 -312q0 -93 -38 -162.5t-102.5 -108.5t-138.5 -58t-157 -19q-127 0 -246.5 41.5t-197.5 116.5l188 199q46 -51 112.5 -83t137.5 -32q48 0 84.5 21.5t36.5 66.5
q0 44 -44 67t-159 50q-60 14 -107 34t-93 53.5t-71.5 87t-25.5 122.5q0 87 38.5 155.5t101 107.5t135 59t149.5 20q117 0 226.5 -37.5t182.5 -106.5zM868 1466l-299 -295h-254l213 295h340z" />
    <glyph glyph-name="Scircumflex" unicode="&#x15c;" horiz-adv-x="1210" 
d="M1139 1309l-224 -236q-43 56 -116 90.5t-142 34.5q-51 0 -93.5 -11.5t-75.5 -45.5t-33 -88q0 -28 11 -50.5t27 -38t48.5 -31t60 -25.5t76.5 -25q55 -18 88 -29.5t86.5 -34t86.5 -44t73 -56t62.5 -72t38 -89.5t15.5 -112q0 -121 -46 -215.5t-124.5 -152t-176 -86.5
t-208.5 -29q-157 0 -302.5 55t-239.5 154l229 234q53 -67 140.5 -110.5t172.5 -43.5q88 0 144.5 38t56.5 120q0 76 -80 122q-50 29 -213 81l-1 1h-1h-1l-1 1h-1h-1l-1 1h-1q-51 16 -92 33.5t-85.5 42t-77.5 56.5t-60.5 72.5t-41.5 94t-14 117.5q0 93 32.5 170.5t87.5 129
t128 87.5t152 52t162 16q127 0 254.5 -46.5t220.5 -131.5zM1061 1565h-266l-140 166l-139 -166h-262l254 295h303z" />
    <glyph glyph-name="scircumflex" unicode="&#x15d;" horiz-adv-x="966" 
d="M915 909l-184 -190q-96 92 -213 92q-53 0 -90 -20.5t-37 -61.5q0 -40 39 -59t148 -43q325 -73 325 -312q0 -93 -38 -162.5t-102.5 -108.5t-138.5 -58t-157 -19q-127 0 -246.5 41.5t-197.5 116.5l188 199q46 -51 112.5 -83t137.5 -32q48 0 84.5 21.5t36.5 66.5
q0 44 -44 67t-159 50q-60 14 -107 34t-93 53.5t-71.5 87t-25.5 122.5q0 87 38.5 155.5t101 107.5t135 59t149.5 20q117 0 226.5 -37.5t182.5 -106.5zM911 1171h-266l-139 166l-139 -166h-263l254 295h304z" />
    <glyph glyph-name="Scedilla" unicode="&#x15e;" horiz-adv-x="1210" 
d="M854 -291q0 -56 -28 -97.5t-75 -63t-96 -31t-102 -9.5q-138 0 -244 52l56 123q80 -39 172 -39q41 0 71.5 15t30.5 52q0 60 -96 60q-41 0 -82 -13l-64 60l111 147q-141 11 -267.5 64.5t-209.5 142.5l229 234q53 -67 140.5 -110.5t172.5 -43.5q88 0 144.5 38t56.5 120
q0 76 -80 122q-50 29 -213 81l-1 1h-1h-1l-1 1h-1h-1l-1 1h-1q-51 16 -92 33.5t-85.5 42t-77.5 56.5t-60.5 72.5t-41.5 94t-14 117.5q0 93 32.5 170.5t87.5 129t128 87.5t152 52t162 16q127 0 254.5 -46.5t220.5 -131.5l-224 -236q-43 56 -116 90.5t-142 34.5
q-51 0 -93.5 -11.5t-75.5 -45.5t-33 -88q0 -28 11 -50.5t27 -38t48.5 -31t60 -25.5t76.5 -25q55 -18 88 -29.5t86.5 -34t86.5 -44t73 -56t62.5 -72t38 -89.5t15.5 -112q0 -107 -35.5 -193t-98.5 -143.5t-142.5 -92t-173.5 -46.5l-72 -94q14 2 37 2q41 0 75 -7.5t66.5 -25
t51 -52.5t18.5 -85z" />
    <glyph glyph-name="scedilla" unicode="&#x15f;" horiz-adv-x="966" 
d="M743 -291q0 -56 -28 -97.5t-75 -63t-96 -31t-102 -9.5q-137 0 -243 52l55 123q80 -39 172 -39q41 0 71.5 15t30.5 52q0 60 -96 60q-41 0 -82 -13l-63 60l114 153q-112 9 -211.5 48.5t-166.5 105.5l188 199q46 -51 112.5 -83t137.5 -32q48 0 84.5 21.5t36.5 66.5
q0 44 -44 67t-159 50q-60 14 -107 34t-93 53.5t-71.5 87t-25.5 122.5q0 71 25.5 129.5t67.5 97.5t97.5 66t114.5 39t119 12q116 0 225.5 -38.5t183.5 -107.5l-184 -190q-96 92 -213 92q-53 0 -90 -20.5t-37 -61.5q0 -40 39 -59t148 -43q325 -73 325 -312q0 -78 -27 -140
t-74.5 -102t-105 -64t-125.5 -34l-75 -98q14 2 36 2q41 0 75 -7.5t66.5 -25t51 -52.5t18.5 -85z" />
    <glyph glyph-name="Scaron" unicode="&#x160;" horiz-adv-x="1210" 
d="M1139 1309l-224 -236q-43 56 -116 90.5t-142 34.5q-51 0 -93.5 -11.5t-75.5 -45.5t-33 -88q0 -28 11 -50.5t27 -38t48.5 -31t60 -25.5t76.5 -25q55 -18 88 -29.5t86.5 -34t86.5 -44t73 -56t62.5 -72t38 -89.5t15.5 -112q0 -121 -46 -215.5t-124.5 -152t-176 -86.5
t-208.5 -29q-157 0 -302.5 55t-239.5 154l229 234q53 -67 140.5 -110.5t172.5 -43.5q88 0 144.5 38t56.5 120q0 76 -80 122q-50 29 -213 81l-1 1h-1h-1l-1 1h-1h-1l-1 1h-1q-51 16 -92 33.5t-85.5 42t-77.5 56.5t-60.5 72.5t-41.5 94t-14 117.5q0 93 32.5 170.5t87.5 129
t128 87.5t152 52t162 16q127 0 254.5 -46.5t220.5 -131.5zM1065 1860l-252 -295h-301l-254 295h266l140 -166l139 166h262z" />
    <glyph glyph-name="scaron" unicode="&#x161;" horiz-adv-x="966" 
d="M915 909l-184 -190q-96 92 -213 92q-53 0 -90 -20.5t-37 -61.5q0 -40 39 -59t148 -43q325 -73 325 -312q0 -93 -38 -162.5t-102.5 -108.5t-138.5 -58t-157 -19q-127 0 -246.5 41.5t-197.5 116.5l188 199q46 -51 112.5 -83t137.5 -32q48 0 84.5 21.5t36.5 66.5
q0 44 -44 67t-159 50q-60 14 -107 34t-93 53.5t-71.5 87t-25.5 122.5q0 87 38.5 155.5t101 107.5t135 59t149.5 20q117 0 226.5 -37.5t182.5 -106.5zM909 1466l-252 -295h-301l-254 295h267l139 -166l139 166h262z" />
    <glyph glyph-name="Tcommaaccent" unicode="&#x162;" horiz-adv-x="1189" 
d="M1180 1151h-410v-1151h-350v1151h-410v299h1170v-299zM748 -92l-177 -400h-258l138 400h297z" />
    <glyph glyph-name="tcommaaccent" unicode="&#x163;" horiz-adv-x="761" 
d="M735 768h-239v-389q0 -73 28.5 -108t98.5 -35q58 0 98 16l4 -246q-87 -31 -195 -31q-194 0 -278 94.5t-84 268.5v430h-164v252h162v268h330v-268h239v-252zM590 -92l-176 -400h-258l137 400h297z" />
    <glyph glyph-name="Tcaron" unicode="&#x164;" horiz-adv-x="1189" 
d="M1180 1151h-410v-1151h-350v1151h-410v299h1170v-299zM999 1860l-251 -295h-302l-253 295h266l139 -166l139 166h262z" />
    <glyph glyph-name="tcaron" unicode="&#x165;" horiz-adv-x="884" 
d="M735 768h-239v-389q0 -73 28.5 -108t98.5 -35q58 0 98 16l4 -246q-87 -31 -195 -31q-194 0 -278 94.5t-84 268.5v430h-164v252h162v268h330v-268h239v-252zM987 1497l-176 -399h-258l137 399h297z" />
    <glyph glyph-name="Tbar" unicode="&#x166;" horiz-adv-x="1189" 
d="M1180 1151h-410v-174h279v-182h-279v-795h-350v795h-268v182h268v174h-410v299h1170v-299z" />
    <glyph glyph-name="tbar" unicode="&#x167;" horiz-adv-x="761" 
d="M694 440h-198v-61q0 -73 28.5 -108t98.5 -35q58 0 98 16l4 -246q-87 -31 -195 -31q-194 0 -278 94.5t-84 268.5v102h-145v183h145v145h-164v252h162v268h330v-268h239v-252h-239v-145h198v-183z" />
    <glyph glyph-name="Utilde" unicode="&#x168;" horiz-adv-x="1511" 
d="M1378 547q0 -262 -170.5 -424t-453.5 -162t-451 161.5t-168 424.5v903h348v-875q0 -61 15.5 -113t47 -94.5t85.5 -67t125 -24.5q72 0 126 24.5t85 67t46 94.5t15 113v875h350v-903zM1145 1843q-13 -119 -70 -194.5t-162 -75.5q-74 0 -165 43q-78 41 -130 41
q-63 0 -86 -82h-147q7 56 23 101.5t42.5 83.5t69 59.5t96.5 21.5q77 0 164 -41t133 -41q65 0 86 84h146z" />
    <glyph glyph-name="utilde" unicode="&#x169;" horiz-adv-x="1257" 
d="M1126 0h-323v141h-4q-37 -71 -120.5 -120.5t-186.5 -49.5q-99 0 -173 36t-116 97t-62 132.5t-20 152.5v631h338v-553q0 -47 6.5 -83t22.5 -68t47 -49t75 -17q84 0 132.5 63.5t48.5 155.5v551h335v-1020zM1006 1450q-13 -119 -70 -194.5t-162 -75.5q-75 0 -166 43
q-78 41 -129 41q-63 0 -86 -82h-147q7 56 23 101.5t42.5 83.5t69 59.5t96.5 21.5q77 0 164 -41t133 -41q65 0 86 84h146z" />
    <glyph glyph-name="Umacron" unicode="&#x16a;" horiz-adv-x="1511" 
d="M1378 547q0 -262 -170.5 -424t-453.5 -162t-451 161.5t-168 424.5v903h348v-875q0 -61 15.5 -113t47 -94.5t85.5 -67t125 -24.5q72 0 126 24.5t85 67t46 94.5t15 113v875h350v-903zM1110 1624h-688v176h688v-176z" />
    <glyph glyph-name="umacron" unicode="&#x16b;" horiz-adv-x="1257" 
d="M1126 0h-323v141h-4q-37 -71 -120.5 -120.5t-186.5 -49.5q-99 0 -173 36t-116 97t-62 132.5t-20 152.5v631h338v-553q0 -47 6.5 -83t22.5 -68t47 -49t75 -17q84 0 132.5 63.5t48.5 155.5v551h335v-1020zM967 1231h-688v176h688v-176z" />
    <glyph glyph-name="Ubreve" unicode="&#x16c;" horiz-adv-x="1511" 
d="M1378 547q0 -262 -170.5 -424t-453.5 -162t-451 161.5t-168 424.5v903h348v-875q0 -61 15.5 -113t47 -94.5t85.5 -67t125 -24.5q72 0 126 24.5t85 67t46 94.5t15 113v875h350v-903zM1114 1860q-13 -152 -109.5 -223.5t-248.5 -71.5q-151 0 -248 71.5t-107 223.5h172
q18 -113 185 -113q79 0 125.5 23.5t58.5 89.5h172z" />
    <glyph glyph-name="ubreve" unicode="&#x16d;" horiz-adv-x="1257" 
d="M1126 0h-323v141h-4q-37 -71 -120.5 -120.5t-186.5 -49.5q-99 0 -173 36t-116 97t-62 132.5t-20 152.5v631h338v-553q0 -47 6.5 -83t22.5 -68t47 -49t75 -17q84 0 132.5 63.5t48.5 155.5v551h335v-1020zM981 1466q-13 -152 -109.5 -223.5t-248.5 -71.5q-151 0 -248 71.5
t-107 223.5h172q11 -60 66 -90q48 -22 119 -22q79 0 125.5 23t58.5 89h172z" />
    <glyph glyph-name="Uring" unicode="&#x16e;" horiz-adv-x="1511" 
d="M1378 547q0 -262 -170.5 -424t-453.5 -162t-451 161.5t-168 424.5v903h348v-875q0 -61 15.5 -113t47 -94.5t85.5 -67t125 -24.5q72 0 126 24.5t85 67t46 94.5t15 113v875h350v-903zM989 1753q0 -94 -65 -156.5t-158 -62.5t-158 62t-65 155q0 95 64.5 158t158.5 63
q93 0 158 -63t65 -156zM887 1753q0 51 -35 85t-86 34q-52 0 -86.5 -35t-34.5 -86q0 -49 35 -83t86 -34t86 34t35 85z" />
    <glyph glyph-name="uring" unicode="&#x16f;" horiz-adv-x="1257" 
d="M1126 0h-323v141h-4q-37 -71 -120.5 -120.5t-186.5 -49.5q-99 0 -173 36t-116 97t-62 132.5t-20 152.5v631h338v-553q0 -47 6.5 -83t22.5 -68t47 -49t75 -17q84 0 132.5 63.5t48.5 155.5v551h335v-1020zM848 1360q0 -94 -65 -156.5t-158 -62.5t-158.5 62t-65.5 155
q0 95 65 158t159 63q93 0 158 -63t65 -156zM745 1360q0 51 -34.5 85t-85.5 34q-52 0 -86.5 -35t-34.5 -86q0 -49 35 -83t86 -34t85.5 34t34.5 85z" />
    <glyph glyph-name="Uhungarumlaut" unicode="&#x170;" horiz-adv-x="1511" 
d="M1378 547q0 -262 -170.5 -424t-453.5 -162t-451 161.5t-168 424.5v903h348v-875q0 -61 15.5 -113t47 -94.5t85.5 -67t125 -24.5q72 0 126 24.5t85 67t46 94.5t15 113v875h350v-903zM1405 1860l-299 -295h-254l213 295h340zM954 1860l-299 -295h-254l213 295h340z" />
    <glyph glyph-name="uhungarumlaut" unicode="&#x171;" horiz-adv-x="1257" 
d="M1126 0h-323v141h-4q-37 -71 -120.5 -120.5t-186.5 -49.5q-99 0 -173 36t-116 97t-62 132.5t-20 152.5v631h338v-553q0 -47 6.5 -83t22.5 -68t47 -49t75 -17q84 0 132.5 63.5t48.5 155.5v551h335v-1020zM1274 1466l-299 -295h-254l213 295h340zM823 1466l-299 -295h-254
l213 295h340z" />
    <glyph glyph-name="Uogonek" unicode="&#x172;" horiz-adv-x="1511" 
d="M989 -401q-110 -82 -235 -82q-43 0 -83 10.5t-74 32t-54.5 58.5t-20.5 85q0 125 164 262q-255 20 -403 177.5t-148 404.5v903h348v-875q0 -61 15.5 -113t47 -94.5t85.5 -67t125 -24.5q72 0 126 24.5t85 67t46 94.5t15 113v875h350v-903q0 -230 -132.5 -384.5
t-360.5 -191.5q-150 -132 -150 -213q0 -32 21.5 -52.5t54.5 -20.5q56 0 113 41z" />
    <glyph glyph-name="uogonek" unicode="&#x173;" horiz-adv-x="1257" 
d="M1061 -401q-110 -82 -236 -82q-59 0 -109.5 18t-86 61.5t-35.5 106.5q0 80 61 156.5t148 140.5v141h-4q-37 -71 -120.5 -120.5t-186.5 -49.5q-99 0 -173 36t-116 97t-62 132.5t-20 152.5v631h338v-553q0 -47 6.5 -83t22.5 -68t47 -49t75 -17q84 0 132.5 63.5t48.5 155.5
v551h335v-1020h-135q-184 -148 -184 -242q0 -32 21.5 -52.5t54.5 -20.5q55 0 112 41z" />
    <glyph glyph-name="Wcircumflex" unicode="&#x174;" horiz-adv-x="2099" 
d="M2099 1450l-413 -1450h-347l-286 981h-6l-287 -981h-348l-412 1450h377l229 -965h6l258 965h365l260 -965h6l234 965h364zM1458 1565h-266l-139 166l-140 -166h-262l254 295h303z" />
    <glyph glyph-name="wcircumflex" unicode="&#x175;" horiz-adv-x="1783" 
d="M1784 1020l-354 -1020h-338l-201 635h-4l-197 -635h-338l-352 1020h362l177 -645h6l182 645h338l188 -645h4l179 645h348zM1300 1171h-266l-139 166l-139 -166h-262l254 295h303z" />
    <glyph glyph-name="Ycircumflex" unicode="&#x176;" horiz-adv-x="1370" 
d="M1411 1450l-557 -836v-614h-350v614l-545 836h424l309 -537l309 537h410zM1096 1565h-267l-139 166l-139 -166h-262l254 295h303z" />
    <glyph glyph-name="ycircumflex" unicode="&#x177;" horiz-adv-x="1161" 
d="M1163 1020l-456 -1174q-33 -84 -69.5 -143t-89 -105t-124.5 -68t-166 -22q-90 0 -184 23l37 283q63 -19 108 -19q73 0 109 32t63 105l33 84l-426 1004h373l227 -655h6l203 655h356zM1001 1171h-266l-139 166l-139 -166h-262l254 295h303z" />
    <glyph glyph-name="Ydieresis" unicode="&#x178;" horiz-adv-x="1370" 
d="M1411 1450l-557 -836v-614h-350v614l-545 836h424l309 -537l309 537h410zM1085 1741q0 -70 -50 -119t-120 -49q-71 0 -120.5 49.5t-49.5 118.5q0 67 49.5 116.5t120.5 49.5q69 0 119.5 -48.5t50.5 -117.5zM641 1741q0 -70 -50.5 -119t-121.5 -49q-70 0 -120 49.5
t-50 118.5q0 67 50 116.5t120 49.5q71 0 121.5 -48.5t50.5 -117.5z" />
    <glyph glyph-name="Zacute" unicode="&#x179;" horiz-adv-x="1300" 
d="M1223 0h-1143v303l690 850h-674v297h1112v-281l-706 -866h721v-303zM1059 1860l-299 -295h-254l213 295h340z" />
    <glyph glyph-name="zacute" unicode="&#x17a;" horiz-adv-x="1048" 
d="M979 0h-909v262l479 500h-461v258h870v-252l-493 -508h514v-260zM907 1466l-299 -295h-254l213 295h340z" />
    <glyph glyph-name="Zdotaccent" unicode="&#x17b;" horiz-adv-x="1300" 
d="M1223 0h-1143v303l690 850h-674v297h1112v-281l-706 -866h721v-303zM856 1739q0 -73 -53.5 -123.5t-130.5 -50.5q-76 0 -129.5 51.5t-53.5 122.5t53.5 123.5t129.5 52.5q77 0 130.5 -51.5t53.5 -124.5z" />
    <glyph glyph-name="zdotaccent" unicode="&#x17c;" horiz-adv-x="1048" 
d="M979 0h-909v262l479 500h-461v258h870v-252l-493 -508h514v-260zM715 1346q0 -73 -54 -124t-131 -51q-76 0 -129 52t-53 123t53 123.5t129 52.5q77 0 131 -51.5t54 -124.5z" />
    <glyph glyph-name="Zcaron" unicode="&#x17d;" horiz-adv-x="1300" 
d="M1223 0h-1143v303l690 850h-674v297h1112v-281l-706 -866h721v-303zM1057 1860l-252 -295h-301l-254 295h266l139 -166l140 166h262z" />
    <glyph glyph-name="zcaron" unicode="&#x17e;" horiz-adv-x="1048" 
d="M979 0h-909v262l479 500h-461v258h870v-252l-493 -508h514v-260zM940 1466l-252 -295h-301l-254 295h266l140 -166l139 166h262z" />
    <glyph glyph-name="florin" unicode="&#x192;" horiz-adv-x="1323" 
d="M1081 893v-231h-303l-112 -562q-38 -191 -139 -288t-281 -97q-137 0 -250 58l119 245q46 -32 102 -32q63 0 94.5 46t48.5 136l101 494h-234v231h275l33 160q15 73 32.5 128t50.5 114.5t76.5 97.5t111.5 63t155 25q160 0 280 -70l-123 -248q-61 37 -117 37q-66 0 -99 -45
t-50 -129l-29 -133h258z" />
    <glyph glyph-name="Scommaaccent" unicode="&#x218;" horiz-adv-x="1210" 
d="M1139 1309l-224 -236q-43 56 -116 90.5t-142 34.5q-51 0 -93.5 -11.5t-75.5 -45.5t-33 -88q0 -28 11 -50.5t27 -38t48.5 -31t60 -25.5t76.5 -25q55 -18 88 -29.5t86.5 -34t86.5 -44t73 -56t62.5 -72t38 -89.5t15.5 -112q0 -121 -46 -215.5t-124.5 -152t-176 -86.5
t-208.5 -29q-157 0 -302.5 55t-239.5 154l229 234q53 -67 140.5 -110.5t172.5 -43.5q88 0 144.5 38t56.5 120q0 76 -80 122q-50 29 -213 81l-1 1h-1h-1l-1 1h-1h-1l-1 1h-1q-51 16 -92 33.5t-85.5 42t-77.5 56.5t-60.5 72.5t-41.5 94t-14 117.5q0 93 32.5 170.5t87.5 129
t128 87.5t152 52t162 16q127 0 254.5 -46.5t220.5 -131.5zM745 -92l-176 -400h-258l138 400h296z" />
    <glyph glyph-name="scommaaccent" unicode="&#x219;" horiz-adv-x="966" 
d="M915 909l-184 -190q-96 92 -213 92q-53 0 -90 -20.5t-37 -61.5q0 -40 39 -59t148 -43q325 -73 325 -312q0 -93 -38 -162.5t-102.5 -108.5t-138.5 -58t-157 -19q-127 0 -246.5 41.5t-197.5 116.5l188 199q46 -51 112.5 -83t137.5 -32q48 0 84.5 21.5t36.5 66.5
q0 44 -44 67t-159 50q-60 14 -107 34t-93 53.5t-71.5 87t-25.5 122.5q0 87 38.5 155.5t101 107.5t135 59t149.5 20q117 0 226.5 -37.5t182.5 -106.5zM623 -92l-177 -400h-258l138 400h297z" />
    <glyph glyph-name="uni021A" unicode="&#x21a;" horiz-adv-x="1189" 
d="M1180 1151h-410v-1151h-350v1151h-410v299h1170v-299zM748 -92l-177 -400h-258l138 400h297z" />
    <glyph glyph-name="uni021B" unicode="&#x21b;" horiz-adv-x="761" 
d="M735 768h-239v-389q0 -73 28.5 -108t98.5 -35q58 0 98 16l4 -246q-87 -31 -195 -31q-194 0 -278 94.5t-84 268.5v430h-164v252h162v268h330v-268h239v-252zM590 -92l-176 -400h-258l137 400h297z" />
    <glyph glyph-name="circumflex" unicode="&#x2c6;" 
d="M711 1171h-267l-139 166l-139 -166h-262l254 295h303z" />
    <glyph glyph-name="caron" unicode="&#x2c7;" 
d="M711 1466l-252 -295h-301l-254 295h266l139 -166l140 166h262z" />
    <glyph glyph-name="uni02C9" unicode="&#x2c9;" 
d="M651 1624h-688v176h688v-176z" />
    <glyph glyph-name="breve" unicode="&#x2d8;" 
d="M664 1466q-13 -152 -109.5 -223.5t-249.5 -71.5q-151 0 -247.5 71.5t-106.5 223.5h172q11 -61 65 -90q48 -22 119 -22q80 0 126.5 23t58.5 89h172z" />
    <glyph glyph-name="dotaccent" unicode="&#x2d9;" 
d="M492 1346q0 -73 -54 -124t-131 -51q-76 0 -129 52t-53 123t53 123.5t129 52.5q77 0 131 -51.5t54 -124.5z" />
    <glyph glyph-name="ring" unicode="&#x2da;" 
d="M530 1360q0 -94 -65 -156.5t-158 -62.5t-158 62t-65 155q0 95 64.5 158t158.5 63q93 0 158 -63t65 -156zM428 1360q0 51 -35 85t-86 34q-52 0 -86.5 -35t-34.5 -86q0 -49 35 -83t86 -34t86 34t35 85z" />
    <glyph glyph-name="ogonek" unicode="&#x2db;" 
d="M492 -401q-110 -82 -236 -82q-59 0 -109.5 18t-86 61.5t-35.5 106.5q0 82 65 161t156 144h186q-194 -154 -194 -250q0 -32 21.5 -52.5t53.5 -20.5q56 0 113 41z" />
    <glyph glyph-name="tilde" unicode="&#x2dc;" 
d="M686 1450q-13 -119 -69.5 -194.5t-161.5 -75.5q-75 0 -166 43q-78 41 -129 41q-63 0 -86 -82h-148q7 56 23 101.5t43 83.5t69.5 59.5t96.5 21.5q77 0 164 -41t133 -41q65 0 86 84h145z" />
    <glyph glyph-name="hungarumlaut" unicode="&#x2dd;" 
d="M934 1466l-299 -295h-254l213 295h340zM483 1466l-299 -295h-254l213 295h340z" />
    <glyph glyph-name="uni0394" unicode="&#x394;" horiz-adv-x="1454" 
d="M1436 0h-1418l549 1450h287zM987 297l-282 733l-267 -733h549z" />
    <glyph glyph-name="uni03A9" unicode="&#x3a9;" horiz-adv-x="1579" 
d="M1475 0h-596v449q129 29 200 137q68 103 68 243q0 106 -50.5 189.5t-130.5 126.5t-173 43q-95 0 -176 -43t-132 -126.5t-51 -191.5q0 -139 73.5 -240.5t192.5 -137.5v-449h-596v295h342v22q-159 49 -249 189q-93 142 -93 323q0 142 54.5 264t147 205.5t217.5 131
t265 47.5q189 0 344.5 -78.5t249 -226.5t93.5 -338t-89 -329.5t-253 -187.5v-22h342v-295z" />
    <glyph glyph-name="uni03BC" unicode="&#x3bc;" horiz-adv-x="1363" 
d="M182 1020h332v-508q0 -32 3 -62t13.5 -66.5t26.5 -63t46 -44.5t69 -18q97 0 141.5 63t44.5 164v535h332v-1020h-318v117h-2q-75 -131 -227 -131q-85 0 -129 41v-490h-332v1483z" />
    <glyph glyph-name="pi" unicode="&#x3c0;" horiz-adv-x="1363" 
d="M1284 37q-102 -51 -244 -51q-73 0 -124 21t-78.5 61t-39.5 88.5t-12 111.5v471h-235v-739h-340v739h-141v281h1210v-281h-160v-411q0 -88 72 -88q36 0 92 24v-227z" />
    <glyph glyph-name="endash" unicode="&#x2013;" horiz-adv-x="819" 
d="M758 430h-697v211h697v-211z" />
    <glyph glyph-name="emdash" unicode="&#x2014;" horiz-adv-x="1228" 
d="M1167 428h-1106v213h1106v-213z" />
    <glyph glyph-name="quoteleft" unicode="&#x2018;" 
d="M530 1450l-147 -555h-297l186 555h258z" />
    <glyph glyph-name="quoteright" unicode="&#x2019;" 
d="M528 1450l-186 -555h-258l147 555h297z" />
    <glyph glyph-name="quotesinglbase" unicode="&#x201a;" 
d="M526 297l-186 -555h-258l147 555h297z" />
    <glyph glyph-name="quotedblleft" unicode="&#x201c;" horiz-adv-x="1038" 
d="M954 1450l-145 -555h-295l182 555h258zM530 1450l-151 -555h-293l186 555h258z" />
    <glyph glyph-name="quotedblright" unicode="&#x201d;" horiz-adv-x="1038" 
d="M952 1450l-184 -555h-260l151 555h293zM524 1450l-182 -555h-258l147 555h293z" />
    <glyph glyph-name="quotedblbase" unicode="&#x201e;" horiz-adv-x="1038" 
d="M950 297l-184 -555h-260l151 555h293zM522 297l-182 -555h-258l147 555h293z" />
    <glyph glyph-name="dagger" unicode="&#x2020;" horiz-adv-x="1234" 
d="M1157 782h-397v-1046h-291v1046h-391v256h391v412h291v-412h397v-256z" />
    <glyph glyph-name="daggerdbl" unicode="&#x2021;" horiz-adv-x="1234" 
d="M1151 102h-389v-366h-289v366h-387v254h387v475h-387v252h385v367h291v-367h389v-252h-389v-475h389v-254z" />
    <glyph glyph-name="bullet" unicode="&#x2022;" horiz-adv-x="1024" 
d="M874 725q0 -151 -105.5 -257t-256.5 -106t-256.5 106t-105.5 257t105.5 256.5t256.5 105.5t256.5 -105.5t105.5 -256.5z" />
    <glyph glyph-name="ellipsis" unicode="&#x2026;" horiz-adv-x="2048" 
d="M1911 180q0 -84 -60.5 -142t-144.5 -58q-85 0 -147 57.5t-62 140.5t61.5 143t147.5 60q84 0 144.5 -58.5t60.5 -142.5zM1229 180q0 -84 -60.5 -142t-144.5 -58q-85 0 -147 57.5t-62 140.5t61.5 143t147.5 60q84 0 144.5 -58.5t60.5 -142.5zM547 180q0 -84 -60 -142
t-145 -58q-84 0 -145.5 57t-61.5 141q0 83 61 143t146 60q84 0 144.5 -58.5t60.5 -142.5z" />
    <glyph glyph-name="perthousand" unicode="&#x2030;" horiz-adv-x="2549" 
d="M2478 342q0 -152 -108.5 -259.5t-260.5 -107.5q-151 0 -258.5 107.5t-107.5 259.5t107.5 258.5t258.5 106.5q153 0 261 -106.5t108 -258.5zM2261 342q0 64 -43.5 108t-108.5 44q-64 0 -107.5 -43.5t-43.5 -108.5t43.5 -108.5t107.5 -43.5q65 0 108.5 44t43.5 108z
M1663 342q0 -152 -109 -259.5t-260 -107.5q-152 0 -260 107.5t-108 259.5t107.5 258.5t260.5 106.5q151 0 260 -106.5t109 -258.5zM1446 342q0 64 -44.5 108t-107.5 44q-64 0 -107.5 -43.5t-43.5 -108.5t43.5 -108.5t107.5 -43.5q63 0 107.5 44t44.5 108zM807 1110
q0 -152 -109 -259.5t-260 -107.5q-152 0 -260 107.5t-108 259.5t107.5 258.5t260.5 106.5q151 0 260 -106.5t109 -258.5zM590 1110q0 64 -44.5 108t-107.5 44q-64 0 -107.5 -43.5t-43.5 -108.5t43.5 -108.5t107.5 -43.5q63 0 107.5 44t44.5 108zM1352 1432l-795 -1493
l-182 79l794 1498z" />
    <glyph glyph-name="guilsinglleft" unicode="&#x2039;" horiz-adv-x="651" 
d="M582 174l-201 -129l-330 475l330 475l199 -129l-236 -346z" />
    <glyph glyph-name="guilsinglright" unicode="&#x203a;" horiz-adv-x="651" 
d="M600 518l-330 -473l-198 129l235 344l-237 348l200 129z" />
    <glyph glyph-name="fraction" unicode="&#x2044;" horiz-adv-x="204" 
d="M575 1432l-794 -1493l-178 79l794 1498z" />
    <glyph glyph-name="Euro" unicode="&#x20ac;" horiz-adv-x="1323" 
d="M1161 301l76 -260q-139 -80 -360 -80q-258 0 -423.5 132.5t-222.5 348.5h-188l70 211h92q-2 25 -2 72q0 37 6 74h-160l74 213h117q66 223 248 350t434 127q90 0 182.5 -17t150.5 -45l-100 -258q-91 48 -244 48q-109 0 -202.5 -54.5t-128.5 -150.5h542l-71 -213h-529
q-4 -25 -4 -76q0 -47 2 -70h494l-70 -211h-381q28 -89 122 -146.5t216 -57.5q152 0 260 63z" />
    <glyph glyph-name="afii61289" unicode="&#x2113;" horiz-adv-x="1024" 
d="M952 115q-176 -144 -370 -144q-167 0 -261 87.5t-94 222.5v51l-110 -92h-4l-111 172l223 176v477q0 174 111 293t282 119q149 0 238.5 -88t89.5 -230q0 -157 -96.5 -304.5t-304.5 -315.5v-207q0 -67 34 -98t83 -31q71 0 180 76h4zM688 1141q0 53 -19.5 90t-52.5 37
q-31 0 -51 -40t-20 -102v-321q143 147 143 336z" />
    <glyph glyph-name="trademark" unicode="&#x2122;" horiz-adv-x="2048" 
d="M1942 606h-218v531h-4l-198 -531h-162l-197 531h-4v-531h-215v844h307l195 -532l188 532h308v-844zM791 1255h-242v-649h-225v649h-242v195h709v-195z" />
    <glyph glyph-name="Omega" unicode="&#x2126;" horiz-adv-x="1579" 
d="M1475 0h-596v449q129 29 200 137q68 103 68 243q0 106 -50.5 189.5t-130.5 126.5t-173 43q-95 0 -176 -43t-132 -126.5t-51 -191.5q0 -139 73.5 -240.5t192.5 -137.5v-449h-596v295h342v22q-159 49 -249 189q-93 142 -93 323q0 142 54.5 264t147 205.5t217.5 131
t265 47.5q189 0 344.5 -78.5t249 -226.5t93.5 -338t-89 -329.5t-253 -187.5v-22h342v-295z" />
    <glyph glyph-name="estimated" unicode="&#x212e;" horiz-adv-x="1024" 
d="M322 530h827q-2 250 -149 408t-382 158q-157 0 -278.5 -75.5t-185.5 -203.5t-64 -287q0 -158 64 -286t185.5 -203.5t278.5 -75.5q159 0 265.5 64.5t201.5 212.5l-71 43q-76 -128 -172 -187t-224 -59q-175 0 -296 121v370zM918 604h-596v297q123 123 294 123
q173 0 302 -123v-297z" />
    <glyph glyph-name="partialdiff" unicode="&#x2202;" horiz-adv-x="1363" 
d="M874 877q-1 57 -17 111t-46.5 100.5t-82.5 75t-118 28.5q-78 0 -145.5 -28t-134.5 -107l-158 229q191 191 440 191q132 0 236.5 -44.5t170.5 -117t109 -171.5t60.5 -199.5t17.5 -209.5q0 -75 -6 -144.5t-23 -147.5t-43.5 -144t-70 -127.5t-100.5 -104.5t-138 -68.5
t-178 -25.5q-223 0 -364.5 139t-141.5 357q0 207 132.5 337t359.5 130q132 0 241 -59zM860 598q-96 74 -188 74q-91 0 -141 -59.5t-50 -157.5q0 -92 48 -150.5t124 -58.5q71 0 119.5 49.5t68 120t19.5 155.5v27z" />
    <glyph glyph-name="Delta" unicode="&#x2206;" horiz-adv-x="1454" 
d="M1436 0h-1418l549 1450h287zM987 297l-282 733l-267 -733h549z" />
    <glyph glyph-name="product" unicode="&#x220f;" horiz-adv-x="1542" 
d="M1423 -438h-311v1775h-682v-1775h-309v2048h1302v-2048z" />
    <glyph glyph-name="summation" unicode="&#x2211;" horiz-adv-x="1363" 
d="M1319 -438h-1266v227l598 809l-573 784v228h1216v-273h-823l524 -737l-559 -766h883v-272z" />
    <glyph glyph-name="minus" unicode="&#x2212;" horiz-adv-x="1363" 
d="M1225 496h-1086v252h1086v-252z" />
    <glyph glyph-name="uni2215" unicode="&#x2215;" horiz-adv-x="204" 
d="M575 1432l-794 -1493l-178 79l794 1498z" />
    <glyph glyph-name="uni2219" unicode="&#x2219;" 
d="M514 596q0 -84 -60.5 -142.5t-144.5 -58.5q-86 0 -147.5 57.5t-61.5 141.5q0 83 61.5 143t147.5 60q84 0 144.5 -58.5t60.5 -142.5z" />
    <glyph glyph-name="radical" unicode="&#x221a;" horiz-adv-x="1165" 
d="M1186 1610l-438 -2048h-259l-296 614l-105 -49l-111 233l359 162l229 -489l324 1577h297z" />
    <glyph glyph-name="infinity" unicode="&#x221e;" horiz-adv-x="1714" 
d="M1622 545q0 -167 -101 -279t-274 -112q-115 0 -208 56.5t-181 154.5q-46 -49 -81 -80.5t-83.5 -64t-103 -48.5t-117.5 -16q-172 0 -276.5 110t-104.5 277q0 165 101.5 274t271.5 109q121 0 212 -59t181 -165q42 50 79 86t86 70t106 52t120 18q170 0 271.5 -109
t101.5 -274zM1380 539q0 64 -37 104.5t-100 40.5q-59 0 -116 -41.5t-117 -105.5q126 -140 239 -140q60 0 95.5 40t35.5 102zM705 537q-145 145 -240 145q-57 0 -94 -41.5t-37 -101.5q0 -63 37 -101.5t100 -38.5q106 0 234 138z" />
    <glyph glyph-name="integral" unicode="&#x222b;" horiz-adv-x="1296" 
d="M1063 1425q0 -58 -38 -97.5t-97 -39.5q-36 0 -61.5 17t-36.5 38t-24.5 42t-27.5 26q-5 -4 -8.5 -10t-5.5 -12t-4 -14.5t-2.5 -14t-1 -16t-0.5 -14.5v-14.5v-12.5q0 -29 2 -85t2 -85v-902q0 -155 -4 -231q-3 -71 -12 -129t-32.5 -117.5t-59.5 -100t-96.5 -66t-139.5 -25.5
q-41 0 -83 10.5t-81.5 31t-64.5 59t-25 87.5q0 20 10 37q11 41 46 67.5t81 26.5q36 0 60.5 -17t34 -37.5t22.5 -40.5t26 -24q25 13 25 97q1 31 -1.5 87t-2.5 77v69v946q0 50 0.5 84t4.5 85t10 87t18.5 81t30 76t44 62.5t60 51t79.5 31.5t101 12q38 0 79.5 -10t81.5 -30.5
t65.5 -57.5t25.5 -85z" />
    <glyph glyph-name="approxequal" unicode="&#x2248;" horiz-adv-x="1363" 
d="M1188 958q-17 -187 -103.5 -290t-226.5 -103q-55 0 -130 20.5t-136.5 45t-129 45t-108.5 20.5q-40 0 -67 -32.5t-37 -79.5h-197q6 74 27.5 137.5t59.5 118.5t101 86.5t144 31.5q70 0 162 -30t182.5 -60t157.5 -30q86 0 102 120h199zM1186 506q-6 -57 -19.5 -107.5
t-39 -101t-60.5 -87t-88 -59t-119 -22.5q-56 0 -132 21t-138 45.5t-129.5 45.5t-108.5 21t-69 -34.5t-37 -92.5h-197q5 59 19 113t40 105.5t61.5 89t88 60.5t115.5 23q57 0 128.5 -19.5t129 -43t129 -43t127.5 -19.5q75 0 100 105h199z" />
    <glyph glyph-name="notequal" unicode="&#x2260;" horiz-adv-x="1363" 
d="M1165 225h-559l-151 -299l-236 115l96 184h-209v260h343l88 172h-431v261h564l153 296l236 -112l-96 -184h202v-261h-336l-88 -172h424v-260z" />
    <glyph glyph-name="lessequal" unicode="&#x2264;" horiz-adv-x="1363" 
d="M1202 37h-1040v252h1040v-252zM1202 315l-1040 439v211l1040 438v-279l-627 -268l627 -260v-281z" />
    <glyph glyph-name="greaterequal" unicode="&#x2265;" horiz-adv-x="1363" 
d="M162 37v252h1040v-252h-1040zM162 315v281l626 260l-626 268v279l1040 -438v-211z" />
    <glyph glyph-name="lozenge" unicode="&#x25ca;" horiz-adv-x="1241" 
d="M1118 729l-377 -801h-245l-371 801l373 801h243zM829 729l-211 494l-206 -494l206 -493z" />
    <glyph glyph-name="uniF8FF" unicode="&#xf8ff;" horiz-adv-x="1048" 
d="M455 240h114v137h-114v-137zM461 479h94q0 107 12 148q11 38 88 106q75 69 102 123t27 123q0 120 -72 194t-182 74q-115 0 -189 -69.5t-87 -210.5l102 -17q11 100 56 147.5t112 47.5q64 0 110 -50.5t46 -123.5q0 -41 -19.5 -75.5t-82.5 -94.5q-67 -67 -95 -121
q-26 -51 -26 -166zM946 102h-844v1264h844v-1264zM1049 1470h-1049v-1470h1049v1470z" />
    <glyph glyph-name="ydieresis.sc" horiz-adv-x="1159" 
d="M748 455v-455h-342v455l-426 698h401l207 -412l205 412h387zM979 1450q0 -70 -50 -119t-120 -49q-71 0 -120.5 49t-49.5 119q0 67 49.5 116.5t120.5 49.5q69 0 119.5 -48.5t50.5 -117.5zM535 1450q0 -70 -51 -119t-122 -49q-70 0 -119.5 49.5t-49.5 118.5
q0 67 49.5 116.5t119.5 49.5q71 0 122 -48.5t51 -117.5z" />
    <glyph glyph-name="n.sc" horiz-adv-x="1376" 
d="M143 0v1153h377l389 -661h4l-10 661h330v-1153h-373l-391 653h-6l8 -653h-328z" />
    <glyph glyph-name="umacron.sc" horiz-adv-x="1323" 
d="M657 -33q-243 0 -382.5 130t-139.5 349v707h342v-684q0 -94 47.5 -148.5t134.5 -54.5q88 0 137.5 55t49.5 148v684h342v-707q0 -218 -142.5 -348.5t-388.5 -130.5zM1006 1333h-689v176h689v-176z" />
    <glyph glyph-name="ohungarumlaut.sc" horiz-adv-x="1441" 
d="M1362 580q0 -181 -88 -322.5t-233.5 -216t-321.5 -74.5q-129 0 -245.5 44t-204 122t-138.5 194.5t-51 252.5q0 179 88 319t232.5 213.5t318.5 73.5q176 0 321.5 -73.5t233.5 -213.5t88 -319zM1004 580q0 76 -32 142.5t-98.5 110.5t-154.5 44q-129 0 -203 -89t-74 -208
q0 -122 75 -211.5t206 -89.5q130 0 205.5 89.5t75.5 211.5zM1382 1569l-299 -295h-254l213 295h340zM932 1569l-299 -295h-254l213 295h340z" />
    <glyph glyph-name="iogonek.sc" horiz-adv-x="628" 
d="M143 0v1153h342v-1153q-194 -154 -194 -250q0 -32 22 -53t54 -21q55 0 112 41l66 -127q-110 -82 -236 -82q-59 0 -109.5 18t-86 62t-35.5 107q0 82 65 161t156 144h-156z" />
    <glyph glyph-name="p.sc" horiz-adv-x="1136" 
d="M485 379v-379h-342v1153h473q222 0 349 -92.5t127 -280.5q0 -198 -130 -299.5t-350 -101.5h-127zM485 893v-258h101q77 0 120.5 35.5t43.5 103.5q0 54 -39 86.5t-119 32.5h-107z" />
    <glyph glyph-name="macron.sc" 
d="M651 1333h-688v176h688v-176z" />
    <glyph glyph-name="ugrave.sc" horiz-adv-x="1323" 
d="M657 -33q-243 0 -382.5 130t-139.5 349v707h342v-684q0 -94 47.5 -148.5t134.5 -54.5q88 0 137.5 55t49.5 148v684h342v-707q0 -218 -142.5 -348.5t-388.5 -130.5zM815 1274h-254l-299 295h340z" />
    <glyph glyph-name="oe.sc" horiz-adv-x="1744" 
d="M737 0q-187 0 -332.5 67.5t-230 200.5t-84.5 312q0 180 85 311t230 196.5t332 65.5h873v-260h-484v-184h457v-250h-457v-197h512v-262h-901zM451 580q0 -140 78.5 -213.5t207.5 -73.5h56v571h-56q-128 0 -207 -75.5t-79 -208.5z" />
    <glyph glyph-name="udieresis.sc" horiz-adv-x="1323" 
d="M657 -33q-243 0 -382.5 130t-139.5 349v707h342v-684q0 -94 47.5 -148.5t134.5 -54.5q88 0 137.5 55t49.5 148v684h342v-707q0 -218 -142.5 -348.5t-388.5 -130.5zM1053 1450q0 -70 -50 -119t-120 -49q-71 0 -120.5 49t-49.5 119q0 67 49.5 116.5t120.5 49.5
q69 0 119.5 -48.5t50.5 -117.5zM608 1450q0 -70 -50.5 -119t-121.5 -49q-70 0 -120 49.5t-50 118.5q0 67 50 116.5t120 49.5q71 0 121.5 -48.5t50.5 -117.5z" />
    <glyph glyph-name="grave.sc" 
d="M473 1274h-254l-299 295h340z" />
    <glyph glyph-name="hungarumlaut.cap" 
d="M934 1860l-299 -295h-254l213 295h340zM483 1860l-299 -295h-254l213 295h340z" />
    <glyph glyph-name="otilde.sc" horiz-adv-x="1441" 
d="M1362 580q0 -181 -88 -322.5t-233.5 -216t-321.5 -74.5q-129 0 -245.5 44t-204 122t-138.5 194.5t-51 252.5q0 179 88 319t232.5 213.5t318.5 73.5q176 0 321.5 -73.5t233.5 -213.5t88 -319zM1004 580q0 76 -32 142.5t-98.5 110.5t-154.5 44q-129 0 -203 -89t-74 -208
q0 -122 75 -211.5t206 -89.5q130 0 205.5 89.5t75.5 211.5zM1102 1552q-13 -119 -70 -194.5t-162 -75.5q-81 0 -165 43q-84 41 -130 41q-63 0 -86 -82h-147q7 56 23 101.5t42.5 83.5t69 59.5t96.5 21.5q77 0 164 -41t133 -41q65 0 86 84h146z" />
    <glyph glyph-name="imacron.sc" horiz-adv-x="628" 
d="M143 0v1153h342v-1153h-342zM659 1333h-688v176h688v-176z" />
    <glyph glyph-name="ocircumflex.sc" horiz-adv-x="1441" 
d="M1362 580q0 -181 -88 -322.5t-233.5 -216t-321.5 -74.5q-129 0 -245.5 44t-204 122t-138.5 194.5t-51 252.5q0 179 88 319t232.5 213.5t318.5 73.5q176 0 321.5 -73.5t233.5 -213.5t88 -319zM1004 580q0 76 -32 142.5t-98.5 110.5t-154.5 44q-129 0 -203 -89t-74 -208
q0 -122 75 -211.5t206 -89.5q130 0 205.5 89.5t75.5 211.5zM1122 1274h-266l-139 166l-139 -166h-263l254 295h303z" />
    <glyph glyph-name="perthousand.sc" horiz-adv-x="2367" 
d="M692 868q0 -128 -95.5 -220.5t-225.5 -92.5q-131 0 -226.5 92t-95.5 221q0 130 95.5 221t226.5 91q130 0 225.5 -91.5t95.5 -220.5zM467 868q0 42 -27.5 67.5t-68.5 25.5t-69 -25.5t-28 -67.5t28 -67t69 -25t68.5 25t27.5 67zM1581 283q0 -128 -95.5 -221t-225.5 -93
q-131 0 -226.5 92.5t-95.5 221.5t95 220t227 91q130 0 225.5 -91t95.5 -220zM1356 283q0 42 -27.5 67t-68.5 25t-69 -25t-28 -67t28 -67.5t69 -25.5t68.5 25.5t27.5 67.5zM2327 283q0 -128 -96 -221t-226 -93q-131 0 -226.5 92.5t-95.5 221.5t95 220t227 91q130 0 226 -91
t96 -220zM2101 283q0 42 -27.5 67t-68.5 25t-68.5 -25t-27.5 -67t27.5 -67.5t68.5 -25.5t68.5 25.5t27.5 67.5zM1245 1128l-686 -1196l-180 86l680 1203z" />
    <glyph glyph-name="napostrophe.sc" horiz-adv-x="1665" 
d="M432 0v1153h377l389 -661h4l-10 661h330v-1153h-373l-391 653h-6l8 -653h-328zM389 1153l-176 -399h-258l137 399h297z" />
    <glyph glyph-name="ij.sc" horiz-adv-x="1611" 
d="M143 0v1153h342v-1153h-342zM1116 -33q-158 0 -268 86t-143 226l305 100q8 -58 35.5 -85.5t64.5 -27.5q49 0 69.5 30t20.5 89v768h342v-756q0 -68 -12 -127.5t-42 -116.5t-77 -97t-122.5 -64.5t-172.5 -24.5z" />
    <glyph glyph-name="percent.sc" horiz-adv-x="1665" 
d="M692 868q0 -128 -95.5 -220.5t-225.5 -92.5q-131 0 -226.5 92t-95.5 221q0 130 95.5 221t226.5 91q130 0 225.5 -91.5t95.5 -220.5zM467 868q0 42 -27.5 67.5t-68.5 25.5t-69 -25.5t-28 -67.5t28 -67t69 -25t68.5 25t27.5 67zM1581 283q0 -128 -95.5 -221t-225.5 -93
q-131 0 -226.5 92.5t-95.5 221.5t95 220t227 91q130 0 225.5 -91t95.5 -220zM1356 283q0 42 -27.5 67t-68.5 25t-69 -25t-28 -67t28 -67.5t69 -25.5t68.5 25.5t27.5 67.5zM1245 1128l-686 -1196l-180 86l680 1203z" />
    <glyph glyph-name="obreve.sc" horiz-adv-x="1441" 
d="M1362 580q0 -181 -88 -322.5t-233.5 -216t-321.5 -74.5q-129 0 -245.5 44t-204 122t-138.5 194.5t-51 252.5q0 179 88 319t232.5 213.5t318.5 73.5q176 0 321.5 -73.5t233.5 -213.5t88 -319zM1004 580q0 76 -32 142.5t-98.5 110.5t-154.5 44q-129 0 -203 -89t-74 -208
q0 -122 75 -211.5t206 -89.5q130 0 205.5 89.5t75.5 211.5zM1077 1569q-13 -152 -109.5 -223.5t-248.5 -71.5q-151 0 -247.5 71.5t-106.5 223.5h172q18 -113 184 -113q79 0 125.5 23.5t58.5 89.5h172z" />
    <glyph glyph-name="two.onum" horiz-adv-x="1232" 
d="M1122 0h-999v262l108 64q66 38 101 58t87.5 51t80 48.5t66.5 43t58.5 42t45 39t37.5 39.5t24 38t16.5 40.5t4.5 40.5q0 68 -44.5 107.5t-125.5 39.5q-70 0 -125.5 -39t-87.5 -106l-277 111q66 145 196.5 230t313.5 85q79 0 150 -13t136 -43t112.5 -75t75.5 -112.5
t28 -151.5q0 -50 -13.5 -97t-33 -84t-54.5 -76t-64.5 -65.5t-77.5 -60t-79.5 -53t-83.5 -50.5l-59 -37v-4h483v-272z" />
    <glyph glyph-name="nine.sc" horiz-adv-x="1179" 
d="M575 391l-4 4q-31 -8 -75 -8q-158 0 -263.5 100t-105.5 275q0 192 136 308t349 116t348.5 -114.5t135.5 -303.5q0 -166 -127 -358l-269 -410h-411zM612 623q65 0 105.5 40.5t40.5 106.5q0 65 -41 107.5t-105 42.5q-66 0 -107.5 -42.5t-41.5 -107.5q0 -66 41.5 -106.5
t107.5 -40.5z" />
    <glyph glyph-name="oacute.sc" horiz-adv-x="1441" 
d="M1362 580q0 -181 -88 -322.5t-233.5 -216t-321.5 -74.5q-129 0 -245.5 44t-204 122t-138.5 194.5t-51 252.5q0 179 88 319t232.5 213.5t318.5 73.5q176 0 321.5 -73.5t233.5 -213.5t88 -319zM1004 580q0 76 -32 142.5t-98.5 110.5t-154.5 44q-129 0 -203 -89t-74 -208
q0 -122 75 -211.5t206 -89.5q130 0 205.5 89.5t75.5 211.5zM1118 1569l-299 -295h-254l213 295h340z" />
    <glyph glyph-name="idotaccent.sc" horiz-adv-x="628" 
d="M143 0v1153h342v-1153h-342zM492 1448q0 -73 -54 -123.5t-131 -50.5q-76 0 -129 51.5t-53 122.5t53 123.5t129 52.5q77 0 131 -51.5t54 -124.5z" />
    <glyph glyph-name="ucircumflex.sc" horiz-adv-x="1323" 
d="M657 -33q-243 0 -382.5 130t-139.5 349v707h342v-684q0 -94 47.5 -148.5t134.5 -54.5q88 0 137.5 55t49.5 148v684h342v-707q0 -218 -142.5 -348.5t-388.5 -130.5zM1065 1274h-266l-140 166l-139 -166h-262l254 295h303z" />
    <glyph glyph-name="macron.cap" 
d="M651 1624h-688v176h688v-176z" />
    <glyph glyph-name="oslash.sc" horiz-adv-x="1441" 
d="M80 580q0 179 88 319t232.5 213.5t318.5 73.5q103 0 197.5 -28t164.5 -75l142 148l120 -121l-129 -135q148 -151 148 -395q0 -181 -88 -322.5t-233.5 -216t-321.5 -74.5q-212 0 -363 105l-153 -160l-119 121l141 147q-145 154 -145 400zM436 582q0 -95 27 -150l405 420
q-61 39 -145 39q-125 0 -206 -86.5t-81 -222.5zM1010 582q0 79 -27 141l-403 -420q56 -35 143 -35q126 0 206.5 86.5t80.5 227.5z" />
    <glyph glyph-name="yacute.sc" horiz-adv-x="1159" 
d="M748 455v-455h-342v455l-426 698h401l207 -412l205 412h387zM977 1569l-299 -295h-254l213 295h340z" />
    <glyph glyph-name="uhungarumlaut.sc" horiz-adv-x="1323" 
d="M657 -33q-243 0 -382.5 130t-139.5 349v707h342v-684q0 -94 47.5 -148.5t134.5 -54.5q88 0 137.5 55t49.5 148v684h342v-707q0 -218 -142.5 -348.5t-388.5 -130.5zM1311 1569l-299 -295h-254l213 295h340zM860 1569l-299 -295h-254l213 295h340z" />
    <glyph glyph-name="omacron.sc" horiz-adv-x="1441" 
d="M1362 580q0 -181 -88 -322.5t-233.5 -216t-321.5 -74.5q-129 0 -245.5 44t-204 122t-138.5 194.5t-51 252.5q0 179 88 319t232.5 213.5t318.5 73.5q176 0 321.5 -73.5t233.5 -213.5t88 -319zM1004 580q0 76 -32 142.5t-98.5 110.5t-154.5 44q-129 0 -203 -89t-74 -208
q0 -122 75 -211.5t206 -89.5q130 0 205.5 89.5t75.5 211.5zM1065 1333h-688v176h688v-176z" />
    <glyph glyph-name="z.sc" horiz-adv-x="1165" 
d="M109 0v258l501 616h-489v279h923v-250l-505 -618h518v-285h-948z" />
    <glyph glyph-name="questiondown.sc" horiz-adv-x="1024" 
d="M348 702h334v-38q0 -62 -26 -112t-91 -97l-47 -35q-65 -48 -65 -101q0 -27 19 -48t54 -21q32 0 54 23t28 65l320 -37q-5 -60 -34.5 -118t-79 -107t-128.5 -79t-174 -30q-188 0 -291.5 95t-103.5 239q0 88 34 153t119 126q43 31 60.5 54.5t17.5 49.5v18zM315 981
q0 82 57 137.5t140 55.5t141 -55t58 -136q0 -80 -58 -136t-141 -56q-82 0 -139.5 55.5t-57.5 134.5z" />
    <glyph glyph-name="idieresis.sc" horiz-adv-x="628" 
d="M143 0v1153h342v-1153h-342zM709 1450q0 -70 -50 -119t-120 -49q-71 0 -120.5 49t-49.5 119q0 67 49.5 116.5t120.5 49.5q69 0 119.5 -48.5t50.5 -117.5zM264 1450q0 -70 -50.5 -119t-121.5 -49q-70 0 -120 49.5t-50 118.5q0 67 50 116.5t120 49.5q71 0 121.5 -48.5
t50.5 -117.5z" />
    <glyph glyph-name="one.sc" horiz-adv-x="1179" 
d="M487 0v768l-204 -154l-181 238l412 301h313v-1153h-340z" />
    <glyph glyph-name="question.sc" horiz-adv-x="1024" 
d="M676 451h-334v38q0 62 26 112t91 97l47 35q65 48 65 101q0 27 -19 48t-54 21q-32 0 -54 -23t-28 -65l-320 37q5 60 34.5 118t79 107t128.5 79t174 30q188 0 291.5 -95t103.5 -239q0 -88 -34 -153t-119 -126q-43 -31 -60.5 -54.5t-17.5 -49.5v-18zM709 172q0 -82 -57 -137
t-140 -55t-141 54.5t-58 135.5q0 80 58 136t141 56q82 0 139.5 -55.5t57.5 -134.5z" />
    <glyph glyph-name="iacute.sc" horiz-adv-x="628" 
d="M143 0v1153h342v-1153h-342zM725 1569l-299 -295h-254l213 295h340z" />
    <glyph glyph-name="three.sc" horiz-adv-x="1179" 
d="M858 606v-6q189 -62 189 -264q0 -92 -40.5 -165t-108 -116t-149.5 -65.5t-171 -22.5q-180 0 -309.5 76.5t-178.5 237.5l313 86q42 -129 164 -129q62 0 97.5 29.5t35.5 84.5q0 60 -45.5 94.5t-128.5 34.5h-75v224h73q71 0 111.5 31t40.5 85q0 43 -30 71t-79 28
q-47 0 -83 -31t-48 -84l-315 74q28 102 99.5 172.5t162.5 102.5t197 32q119 0 216 -33.5t160.5 -109t63.5 -183.5q0 -88 -41 -154.5t-121 -99.5z" />
    <glyph glyph-name="ordfeminine.sc" horiz-adv-x="786" 
d="M33 883l266 600h193l260 -600h-213l-39 104h-213l-41 -104h-213zM455 1110l-64 176l-65 -176h129z" />
    <glyph glyph-name="l.sc" horiz-adv-x="964" 
d="M143 0v1153h342v-866h426v-287h-768z" />
    <glyph glyph-name="scommaaccent.sc" horiz-adv-x="1038" 
d="M969 1020l-195 -211q-109 102 -227 102q-53 0 -92 -23t-39 -69q0 -45 41.5 -67.5t152.5 -49.5q55 -13 100 -29.5t92 -44.5t79 -63.5t52.5 -89t20.5 -117.5q0 -84 -27 -152t-71.5 -111.5t-105 -73t-124 -42t-132.5 -12.5q-135 0 -260.5 46.5t-206.5 131.5l196 222
q49 -57 120 -92t146 -35q50 0 87.5 23.5t37.5 74.5q0 49 -46.5 74.5t-166.5 56.5q-64 16 -113.5 37.5t-98 59t-75 96.5t-26.5 137q0 98 40.5 174.5t107 121.5t143.5 68t158 23q123 0 238.5 -43t193.5 -123zM690 -92l-176 -400h-258l137 400h297z" />
    <glyph glyph-name="uring.sc" horiz-adv-x="1323" 
d="M657 -33q-243 0 -382.5 130t-139.5 349v707h342v-684q0 -94 47.5 -148.5t134.5 -54.5q88 0 137.5 55t49.5 148v684h342v-707q0 -218 -142.5 -348.5t-388.5 -130.5zM887 1462q0 -94 -65 -156.5t-158 -62.5t-158.5 62t-65.5 155q0 95 65 158t159 63q93 0 158 -63t65 -156z
M784 1462q0 51 -34.5 85t-85.5 34q-52 0 -86.5 -35t-34.5 -86q0 -49 35 -83t86 -34t85.5 34t34.5 85z" />
    <glyph glyph-name="i.sc" horiz-adv-x="628" 
d="M143 0v1153h342v-1153h-342z" />
    <glyph glyph-name="hcircumflex.sc" horiz-adv-x="1343" 
d="M858 0v463h-373v-463h-342v1153h342v-428h373v428h342v-1153h-342zM1079 1274h-266l-139 166l-139 -166h-263l254 295h303z" />
    <glyph glyph-name="ograve.sc" horiz-adv-x="1441" 
d="M1362 580q0 -181 -88 -322.5t-233.5 -216t-321.5 -74.5q-129 0 -245.5 44t-204 122t-138.5 194.5t-51 252.5q0 179 88 319t232.5 213.5t318.5 73.5q176 0 321.5 -73.5t233.5 -213.5t88 -319zM1004 580q0 76 -32 142.5t-98.5 110.5t-154.5 44q-129 0 -203 -89t-74 -208
q0 -122 75 -211.5t206 -89.5q130 0 205.5 89.5t75.5 211.5zM868 1274h-254l-299 295h340z" />
    <glyph glyph-name="ycircumflex.sc" horiz-adv-x="1159" 
d="M748 455v-455h-342v455l-426 698h401l207 -412l205 412h387zM991 1274h-266l-139 166l-140 -166h-262l254 295h303z" />
    <glyph glyph-name="o.sc" horiz-adv-x="1441" 
d="M1362 580q0 -181 -88 -322.5t-233.5 -216t-321.5 -74.5q-129 0 -245.5 44t-204 122t-138.5 194.5t-51 252.5q0 179 88 319t232.5 213.5t318.5 73.5q176 0 321.5 -73.5t233.5 -213.5t88 -319zM1004 580q0 76 -32 142.5t-98.5 110.5t-154.5 44q-129 0 -203 -89t-74 -208
q0 -122 75 -211.5t206 -89.5q130 0 205.5 89.5t75.5 211.5z" />
    <glyph glyph-name="scircumflex.sc" horiz-adv-x="1038" 
d="M969 1020l-195 -211q-109 102 -227 102q-53 0 -92 -23t-39 -69q0 -45 41.5 -67.5t152.5 -49.5q55 -13 100 -29.5t92 -44.5t79 -63.5t52.5 -89t20.5 -117.5q0 -84 -27 -152t-71.5 -111.5t-105 -73t-124 -42t-132.5 -12.5q-135 0 -260.5 46.5t-206.5 131.5l196 222
q49 -57 120 -92t146 -35q50 0 87.5 23.5t37.5 74.5q0 49 -46.5 74.5t-166.5 56.5q-64 16 -113.5 37.5t-98 59t-75 96.5t-26.5 137q0 98 40.5 174.5t107 121.5t143.5 68t158 23q123 0 238.5 -43t193.5 -123zM936 1274h-266l-140 166l-139 -166h-262l254 295h303z" />
    <glyph glyph-name="j.sc" horiz-adv-x="974" 
d="M414 -33q-158 0 -268.5 86.5t-143.5 225.5l305 100q8 -58 36 -85.5t65 -27.5q49 0 69.5 30t20.5 89v768h342v-756q0 -68 -12 -127.5t-42 -116.5t-77 -97t-122.5 -64.5t-172.5 -24.5z" />
    <glyph glyph-name="igrave.sc" horiz-adv-x="628" 
d="M143 0v1153h342v-1153h-342zM453 1274h-254l-299 295h340z" />
    <glyph glyph-name="aring.sc" horiz-adv-x="1312" 
d="M-4 0l485 1153h357l479 -1153h-371l-78 209h-430l-80 -209h-362zM782 455l-129 352l-131 -352h260zM879 1462q0 -94 -65.5 -156.5t-158.5 -62.5t-158 62t-65 155q0 95 64.5 158t158.5 63q93 0 158.5 -63t65.5 -156zM776 1462q0 51 -35 85t-86 34q-52 0 -86 -35t-34 -86
q0 -50 34.5 -83.5t85.5 -33.5t86 34t35 85z" />
    <glyph glyph-name="ring.sc" 
d="M530 1462q0 -94 -65 -156.5t-158 -62.5t-158 62t-65 155q0 95 64.5 158t158.5 63q93 0 158 -63t65 -156zM428 1462q0 51 -35 85t-86 34q-52 0 -86.5 -35t-34.5 -86q0 -49 35 -83t86 -34t86 34t35 85z" />
    <glyph glyph-name="hungarumlaut.sc" 
d="M934 1569l-299 -295h-254l213 295h340zM483 1569l-299 -295h-254l213 295h340z" />
    <glyph glyph-name="sterling.sc" horiz-adv-x="1179" 
d="M145 0v262h142v217h-142v232h142v77q0 108 45.5 197t141 145t226.5 56q219 0 336 -127l-194 -223q-41 61 -123 61q-48 0 -77.5 -31.5t-29.5 -77.5v-77h246v-232h-246v-217h416v-262h-883z" />
    <glyph glyph-name="nacute.sc" horiz-adv-x="1376" 
d="M143 0v1153h377l389 -661h4l-10 661h330v-1153h-373l-391 653h-6l8 -653h-328zM1061 1569l-299 -295h-254l213 295h340z" />
    <glyph glyph-name="ubreve.sc" horiz-adv-x="1323" 
d="M657 -33q-243 0 -382.5 130t-139.5 349v707h342v-684q0 -94 47.5 -148.5t134.5 -54.5q88 0 137.5 55t49.5 148v684h342v-707q0 -218 -142.5 -348.5t-388.5 -130.5zM1016 1569q-13 -152 -109.5 -223.5t-249.5 -71.5q-151 0 -247.5 71.5t-106.5 223.5h172q18 -113 184 -113
q79 0 126 23.5t59 89.5h172z" />
    <glyph glyph-name="seven.sc" horiz-adv-x="1179" 
d="M606 0h-370l454 868h-524v285h868v-262z" />
    <glyph glyph-name="odieresis.sc" horiz-adv-x="1441" 
d="M1362 580q0 -181 -88 -322.5t-233.5 -216t-321.5 -74.5q-129 0 -245.5 44t-204 122t-138.5 194.5t-51 252.5q0 179 88 319t232.5 213.5t318.5 73.5q176 0 321.5 -73.5t233.5 -213.5t88 -319zM1004 580q0 76 -32 142.5t-98.5 110.5t-154.5 44q-129 0 -203 -89t-74 -208
q0 -122 75 -211.5t206 -89.5q130 0 205.5 89.5t75.5 211.5zM1114 1450q0 -70 -50 -119t-120 -49q-72 0 -121 49t-49 119q0 67 49.5 116.5t120.5 49.5q69 0 119.5 -48.5t50.5 -117.5zM670 1450q0 -70 -50.5 -119t-121.5 -49q-70 0 -120 49.5t-50 118.5q0 67 50 116.5
t120 49.5q71 0 121.5 -48.5t50.5 -117.5z" />
    <glyph glyph-name="zcaron.sc" horiz-adv-x="1165" 
d="M109 0v258l501 616h-489v279h923v-250l-505 -618h518v-285h-948zM989 1569l-252 -295h-301l-254 295h267l139 -166l139 166h262z" />
    <glyph glyph-name="nine.onum" horiz-adv-x="1343" 
d="M1241 651q0 -106 -40 -224.5t-105 -226t-152.5 -216t-176.5 -196.5t-183 -165l-314 146q141 113 266 239.5t191 227.5l-4 4q-50 -35 -148 -35q-127 0 -234 56.5t-173 165t-66 247.5q0 121 45 220t122.5 164t181 100.5t221.5 35.5q119 0 221 -34t180.5 -100t123 -171
t44.5 -238zM895 680q0 95 -62.5 160t-160.5 65q-100 0 -163 -64t-63 -163q0 -95 62 -158t162 -63t162.5 62.5t62.5 160.5z" />
    <glyph glyph-name="germandbls.sc" horiz-adv-x="2074" 
d="M969 1020l-195 -211q-109 102 -227 102q-53 0 -92 -23t-39 -69q0 -45 41.5 -67.5t152.5 -49.5q55 -13 100 -29.5t92 -44.5t79 -63.5t52.5 -89t20.5 -117.5q0 -84 -27 -152t-71.5 -111.5t-105 -73t-124 -42t-132.5 -12.5q-135 0 -260.5 46.5t-206.5 131.5l196 222
q49 -57 120 -92t146 -35q50 0 87.5 23.5t37.5 74.5q0 49 -46.5 74.5t-166.5 56.5q-64 16 -113.5 37.5t-98 59t-75 96.5t-26.5 137q0 98 40.5 174.5t107 121.5t143.5 68t158 23q123 0 238.5 -43t193.5 -123zM2005 1020l-195 -211q-109 102 -227 102q-53 0 -92 -23t-39 -69
q0 -45 42 -67.5t153 -49.5q55 -13 100 -29.5t92 -44.5t79 -63.5t52.5 -89t20.5 -117.5q0 -84 -27 -152t-72 -111.5t-105.5 -73t-124 -42t-132.5 -12.5q-135 0 -260.5 46.5t-206.5 131.5l197 222q49 -57 120 -92t146 -35q50 0 87.5 23.5t37.5 74.5q0 49 -46.5 74.5
t-166.5 56.5q-50 12 -91 27.5t-84 42.5t-72 61t-48 85t-19 114q0 98 40.5 174.5t107 121.5t143.5 68t158 23q123 0 238.5 -43t193.5 -123z" />
    <glyph glyph-name="aacute.sc" horiz-adv-x="1312" 
d="M-4 0l485 1153h357l479 -1153h-371l-78 209h-430l-80 -209h-362zM782 455l-129 352l-131 -352h260zM1069 1569l-299 -295h-254l213 295h340z" />
    <glyph glyph-name="q.sc" horiz-adv-x="1452" 
d="M1204 270v-8l219 10v-272h-714q-288 0 -458.5 153.5t-170.5 436.5q0 263 181 429.5t458 166.5q286 0 461.5 -154t175.5 -414q0 -215 -152 -348zM440 586q0 -137 76 -222t203 -85q131 0 205.5 85t74.5 222q0 126 -76 211.5t-204 85.5q-124 0 -201.5 -85.5t-77.5 -211.5z
" />
    <glyph glyph-name="exclamdown.sc" horiz-adv-x="694" 
d="M516 0h-340v702h340v-702zM545 983q0 -79 -58 -134.5t-141 -55.5t-139.5 56t-56.5 136q0 81 57.5 135t138.5 54q84 0 141.5 -55t57.5 -136z" />
    <glyph glyph-name="jcircumflex.sc" horiz-adv-x="974" 
d="M414 -33q-158 0 -268.5 86.5t-143.5 225.5l305 100q8 -58 36 -85.5t65 -27.5q49 0 69.5 30t20.5 89v768h342v-756q0 -68 -12 -127.5t-42 -116.5t-77 -97t-122.5 -64.5t-172.5 -24.5zM1071 1274h-266l-139 166l-140 -166h-262l254 295h303z" />
    <glyph glyph-name="lacute.sc" horiz-adv-x="964" 
d="M143 0v1153h342v-866h426v-287h-768zM737 1569l-299 -295h-254l213 295h340z" />
    <glyph glyph-name="zacute.sc" horiz-adv-x="1165" 
d="M109 0v258l501 616h-489v279h923v-250l-505 -618h518v-285h-948zM948 1569l-299 -295h-254l213 295h340z" />
    <glyph glyph-name="six.onum" horiz-adv-x="1343" 
d="M1241 479q0 -159 -77.5 -279t-205.5 -180.5t-286 -60.5q-119 0 -220.5 32.5t-180.5 97t-124 169.5t-45 240q0 109 40.5 227t104.5 222.5t152 210t174 189t179 160.5l315 -143q-134 -101 -259 -223.5t-192 -222.5l5 -5q50 35 147 35q127 0 234 -56.5t173 -165t66 -247.5z
M897 475q0 96 -61.5 158.5t-161.5 62.5t-162.5 -62.5t-62.5 -158.5q0 -97 62.5 -162t160.5 -65q100 0 162.5 64t62.5 163z" />
    <glyph glyph-name="k.sc" horiz-adv-x="1275" 
d="M854 0l-367 512h-4v-512h-340v1153h340v-461h4l363 461h412l-467 -532l493 -621h-434z" />
    <glyph glyph-name="tcommaaccent.sc" horiz-adv-x="989" 
d="M666 870v-870h-342v870h-314v283h969v-283h-313zM645 -92l-176 -400h-258l137 400h297z" />
    <glyph glyph-name="r.sc" horiz-adv-x="1163" 
d="M143 0v1153h482q79 0 146.5 -11.5t126 -38t99.5 -67t64.5 -101.5t23.5 -138q0 -118 -55.5 -202.5t-152.5 -123.5l280 -471h-377l-221 410h-78v-410h-338zM481 893v-238h113q151 0 151 129q0 109 -149 109h-115z" />
    <glyph glyph-name="lslash.sc" horiz-adv-x="964" 
d="M143 0v350l-131 -102v291l131 100v514h342v-248l220 170v-289l-220 -170v-329h426v-287h-768z" />
    <glyph glyph-name="scaron.sc" horiz-adv-x="1038" 
d="M969 1020l-195 -211q-109 102 -227 102q-53 0 -92 -23t-39 -69q0 -45 41.5 -67.5t152.5 -49.5q55 -13 100 -29.5t92 -44.5t79 -63.5t52.5 -89t20.5 -117.5q0 -84 -27 -152t-71.5 -111.5t-105 -73t-124 -42t-132.5 -12.5q-135 0 -260.5 46.5t-206.5 131.5l196 222
q49 -57 120 -92t146 -35q50 0 87.5 23.5t37.5 74.5q0 49 -46.5 74.5t-166.5 56.5q-64 16 -113.5 37.5t-98 59t-75 96.5t-26.5 137q0 98 40.5 174.5t107 121.5t143.5 68t158 23q123 0 238.5 -43t193.5 -123zM938 1569l-252 -295h-301l-254 295h266l140 -166l139 166h262z" />
    <glyph glyph-name="icircumflex.sc" horiz-adv-x="628" 
d="M143 0v1153h342v-1153h-342zM719 1274h-266l-140 166l-139 -166h-262l254 295h303z" />
    <glyph glyph-name="itilde.sc" horiz-adv-x="628" 
d="M143 0v1153h342v-1153h-342zM696 1552q-13 -119 -69.5 -194.5t-161.5 -75.5q-82 0 -166 43q-84 41 -129 41q-63 0 -86 -82h-147q7 56 23 101.5t42.5 83.5t69 59.5t96.5 21.5q77 0 164 -41t133 -41q65 0 86 84h145z" />
    <glyph glyph-name="s.sc" horiz-adv-x="1038" 
d="M969 1020l-195 -211q-109 102 -227 102q-53 0 -92 -23t-39 -69q0 -45 41.5 -67.5t152.5 -49.5q55 -13 100 -29.5t92 -44.5t79 -63.5t52.5 -89t20.5 -117.5q0 -84 -27 -152t-71.5 -111.5t-105 -73t-124 -42t-132.5 -12.5q-135 0 -260.5 46.5t-206.5 131.5l196 222
q49 -57 120 -92t146 -35q50 0 87.5 23.5t37.5 74.5q0 49 -46.5 74.5t-166.5 56.5q-64 16 -113.5 37.5t-98 59t-75 96.5t-26.5 137q0 98 40.5 174.5t107 121.5t143.5 68t158 23q123 0 238.5 -43t193.5 -123z" />
    <glyph glyph-name="hbar.sc" horiz-adv-x="1343" 
d="M858 0v442h-373v-442h-342v1153h342v-154h373v154h342v-1153h-342zM485 705h373v135h-373v-135z" />
    <glyph glyph-name="y.sc" horiz-adv-x="1159" 
d="M748 455v-455h-342v455l-426 698h401l207 -412l205 412h387z" />
    <glyph glyph-name="kcommaaccent.sc" horiz-adv-x="1275" 
d="M854 0l-367 512h-4v-512h-340v1153h340v-461h4l363 461h412l-467 -532l493 -621h-434zM793 -92l-177 -400h-258l138 400h297z" />
    <glyph glyph-name="zdotaccent.sc" horiz-adv-x="1165" 
d="M109 0v258l501 616h-489v279h923v-250l-505 -618h518v-285h-948zM770 1448q0 -73 -53.5 -123.5t-130.5 -50.5q-76 0 -129.5 51.5t-53.5 122.5t53.5 123.5t129.5 52.5q77 0 130.5 -51.5t53.5 -124.5z" />
    <glyph glyph-name="exclam.sc" horiz-adv-x="694" 
d="M516 1153v-702h-340v702h340zM545 170q0 -81 -57.5 -135.5t-141.5 -54.5q-81 0 -138.5 54t-57.5 134t56.5 136t139.5 56t141 -55.5t58 -134.5z" />
    <glyph glyph-name="a.sc" horiz-adv-x="1312" 
d="M-4 0l485 1153h357l479 -1153h-371l-78 209h-430l-80 -209h-362zM782 455l-129 352l-131 -352h260z" />
    <glyph glyph-name="h.sc" horiz-adv-x="1343" 
d="M858 0v463h-373v-463h-342v1153h342v-428h373v428h342v-1153h-342z" />
    <glyph glyph-name="m.sc" horiz-adv-x="1656" 
d="M700 0l-229 709h-6l6 -709h-328v1153h461l227 -672h9l217 672h456v-1153h-337l6 709h-6l-236 -709h-240z" />
    <glyph glyph-name="tilde.sc" 
d="M563 1153l-176 -399h-258l137 399h297z" />
    <glyph glyph-name="grave.cap" 
d="M481 1565h-254l-299 295h340z" />
    <glyph glyph-name="seven.onum" horiz-adv-x="1179" 
d="M1096 893q-158 -319 -318.5 -671.5t-257.5 -590.5l-354 76q108 239 277.5 590t281.5 567h-639v295h1010v-266z" />
    <glyph glyph-name="tbar.sc" horiz-adv-x="989" 
d="M113 541v176h211v153h-314v283h969v-283h-313v-153h211v-176h-211v-541h-342v541h-211z" />
    <glyph glyph-name="acute.cap" 
d="M686 1860l-299 -295h-254l213 295h340z" />
    <glyph glyph-name="wcircumflex.sc" horiz-adv-x="1798" 
d="M1790 1153l-354 -1153h-338l-201 717h-4l-197 -717h-336l-352 1153h363l174 -729h6l182 729h340l187 -729h4l178 729h348zM1303 1274h-267l-139 166l-139 -166h-262l254 295h303z" />
    <glyph glyph-name="ebreve.sc" horiz-adv-x="1095" 
d="M143 0v1153h818v-260h-484v-184h457v-250h-457v-197h512v-262h-846zM911 1569q-13 -152 -109.5 -223.5t-248.5 -71.5q-151 0 -247.5 71.5t-106.5 223.5h172q18 -113 184 -113q79 0 125.5 23.5t58.5 89.5h172z" />
    <glyph glyph-name="ncommaaccent.sc" horiz-adv-x="1376" 
d="M143 0v1153h377l389 -661h4l-10 661h330v-1153h-373l-391 653h-6l8 -653h-328zM838 -92l-176 -400h-259l138 400h297z" />
    <glyph glyph-name="three.onum" horiz-adv-x="1179" 
d="M1077 170q0 -108 -36.5 -196.5t-98.5 -147.5t-147 -99t-178 -57.5t-195 -17.5q-153 0 -283 26l49 293q107 -22 209 -22q147 0 238.5 55.5t91.5 165.5q0 89 -81 138.5t-212 49.5q-101 0 -225 -28l-59 237q250 152 473 305v9h-492v278h887v-291q-218 -163 -420 -286v-7
q40 5 55 5q179 0 301.5 -112.5t122.5 -297.5z" />
    <glyph glyph-name="one.onum" horiz-adv-x="976" 
d="M754 0h-346v801l-201 -148l-166 234l385 272h328v-1159z" />
    <glyph glyph-name="ntilde.sc" horiz-adv-x="1376" 
d="M143 0v1153h377l389 -661h4l-10 661h330v-1153h-373l-391 653h-6l8 -653h-328zM1061 1552q-13 -119 -70 -194.5t-162 -75.5q-81 0 -165 43q-84 41 -129 41q-63 0 -86 -82h-148q7 56 23 101.5t42.5 83.5t69 59.5t96.5 21.5q77 0 164 -41t133 -41q65 0 86 84h146z" />
    <glyph glyph-name="w.sc" horiz-adv-x="1798" 
d="M1790 1153l-354 -1153h-338l-201 717h-4l-197 -717h-336l-352 1153h363l174 -729h6l182 729h340l187 -729h4l178 729h348z" />
    <glyph glyph-name="acute.sc" 
d="M694 1569l-299 -295h-254l213 295h340z" />
    <glyph glyph-name="four.sc" horiz-adv-x="1179" 
d="M936 213v-213h-313v213h-549v264l446 676h416v-694h149v-246h-149zM618 838l-237 -379h242v379h-5z" />
    <glyph glyph-name="Euro.sc" horiz-adv-x="1179" 
d="M997 285l78 -254q-135 -64 -307 -64q-204 0 -340 96t-178 283h-164l59 184h82v48q0 9 1 21.5t1 16.5h-143l66 185h102q56 187 205.5 286t361.5 99q161 0 279 -47l-103 -260q-84 41 -196 41q-157 0 -217 -119h387l-60 -185h-368q-4 -20 -4 -41q0 -22 2 -45h348l-62 -184
h-249q23 -56 81.5 -83t126.5 -27q107 0 211 49z" />
    <glyph glyph-name="dotaccent.cap" 
d="M492 1739q0 -73 -54 -123.5t-131 -50.5q-76 0 -129 51.5t-53 122.5t53 123.5t129 52.5q77 0 131 -51.5t54 -124.5z" />
    <glyph glyph-name="aogonek.sc" horiz-adv-x="1312" 
d="M1192 -410q-110 -82 -236 -82q-59 0 -109.5 18t-86 62t-35.5 107q0 82 65 161t156 144l-78 209h-430l-80 -209h-362l485 1153h357l479 -1153h-184q-195 -155 -195 -250q0 -32 22 -53t54 -21q55 0 112 41zM782 455l-129 352l-131 -352h260z" />
    <glyph glyph-name="five.onum" horiz-adv-x="1173" 
d="M1036 1159v-295h-524l-33 -241q41 8 94 8q210 0 342 -117.5t132 -331.5q0 -114 -36.5 -205.5t-97.5 -151t-144.5 -99.5t-173 -57t-187.5 -17q-146 0 -285 24l47 293q110 -20 201 -20q153 0 239 56.5t86 174.5q0 53 -23 93.5t-62.5 64.5t-88.5 35.5t-106 11.5
q-112 0 -273 -35l72 809h821z" />
    <glyph glyph-name="florin.sc" horiz-adv-x="1179" 
d="M977 715v-228h-227l-60 -288q-38 -187 -133.5 -281t-269.5 -94q-57 0 -124.5 16t-115.5 43l98 246q58 -39 117 -39q49 0 78.5 36.5t46.5 119.5l47 241h-147v228h188l33 159q32 154 129 233t244 79t254 -66l-121 -246q-52 37 -111 37q-76 0 -92 -88l-23 -108h189z" />
    <glyph glyph-name="atilde.sc" horiz-adv-x="1312" 
d="M-4 0l485 1153h357l479 -1153h-371l-78 209h-430l-80 -209h-362zM782 455l-129 352l-131 -352h260zM1036 1552q-13 -119 -69.5 -194.5t-161.5 -75.5q-82 0 -166 43q-84 41 -129 41q-63 0 -86 -82h-148q7 56 23 101.5t43 83.5t69.5 59.5t96.5 21.5q77 0 164 -41t133 -41
q65 0 86 84h145z" />
    <glyph glyph-name="dollar.sc" horiz-adv-x="1179" 
d="M678 1262v-107q202 -11 356 -123l-172 -219q-81 75 -180 90v-192q181 -44 277 -127t96 -224q0 -167 -106 -260.5t-285 -101.5v-117h-144v115q-110 2 -221 36.5t-176 96.5l194 223q40 -43 96 -68t107 -30v211q-92 24 -153 49.5t-111 64.5t-73 95.5t-23 134.5
q0 74 32.5 138.5t86 107.5t120 69t136.5 31v107h143zM539 741v164q-38 -6 -60 -27t-22 -47q0 -34 20 -55t62 -35zM664 436v-182q44 6 66 29t22 57q0 65 -88 96z" />
    <glyph glyph-name="ccedilla.sc" horiz-adv-x="1183" 
d="M948 -291q0 -56 -28 -97.5t-75 -63t-96 -31t-102 -9.5q-138 0 -244 52l56 123q80 -39 172 -39q41 0 71.5 15t30.5 52q0 60 -96 60q-41 0 -82 -13l-63 60l118 157q-235 32 -382.5 192.5t-147.5 410.5q0 136 50 251t136 192.5t203 121t250 43.5q123 0 241.5 -44t190.5 -116
l-209 -242q-36 48 -96.5 74.5t-124.5 26.5q-122 0 -200.5 -90t-78.5 -217q0 -128 79 -217t206 -89q66 0 125.5 24t97.5 73l201 -248q-67 -66 -165.5 -105t-213.5 -47l-72 -92q14 2 37 2q41 0 75 -7.5t66.5 -25t51 -52.5t18.5 -85z" />
    <glyph glyph-name="gbreve.sc" horiz-adv-x="1320" 
d="M733 -33q-190 0 -337 72.5t-231.5 212.5t-84.5 328q0 180 87 319.5t235 213t331 73.5q288 0 467 -152l-221 -252q-95 109 -240 109q-130 0 -213.5 -86t-83.5 -227q0 -146 82 -231t219 -85q87 0 146 23v155h-205v242h524v-604q-217 -111 -475 -111zM1098 1569
q-13 -152 -109.5 -223.5t-249.5 -71.5q-151 0 -247.5 71.5t-106.5 223.5h172q18 -113 184 -113q79 0 126 23.5t59 89.5h172z" />
    <glyph glyph-name="lcaron.sc" horiz-adv-x="964" 
d="M143 0v1153h342v-866h426v-287h-768zM991 1153l-176 -399h-258l137 399h297z" />
    <glyph glyph-name="racute.sc" horiz-adv-x="1163" 
d="M143 0v1153h482q79 0 146.5 -11.5t126 -38t99.5 -67t64.5 -101.5t23.5 -138q0 -118 -55.5 -202.5t-152.5 -123.5l280 -471h-377l-221 410h-78v-410h-338zM481 893v-238h113q151 0 151 129q0 109 -149 109h-115zM942 1569l-299 -295h-254l213 295h340z" />
    <glyph glyph-name="dcroat.sc" horiz-adv-x="1341" 
d="M600 0h-457v481h-127v215h127v457h447q109 0 204 -17.5t182.5 -59t149.5 -106t99 -164t37 -226.5q0 -117 -36.5 -214.5t-98.5 -164t-147 -113t-180.5 -67.5t-199.5 -21zM483 885v-189h203v-215h-203v-211h86q72 0 129.5 16t104.5 51t72.5 97t25.5 148q0 160 -88.5 231.5
t-237.5 71.5h-92z" />
    <glyph glyph-name="four.onum" horiz-adv-x="1320" 
d="M1272 6h-203v-354h-326v354h-671v291l514 897h354l-537 -909h342v424h324v-424h203v-279z" />
    <glyph glyph-name="tilde.cap" 
d="M686 1843q-13 -119 -69.5 -194.5t-161.5 -75.5q-75 0 -166 43q-78 41 -129 41q-63 0 -86 -82h-148q7 56 23 101.5t43 83.5t69.5 59.5t96.5 21.5q77 0 164 -41t133 -41q65 0 86 84h145z" />
    <glyph glyph-name="utilde.sc" horiz-adv-x="1323" 
d="M657 -33q-243 0 -382.5 130t-139.5 349v707h342v-684q0 -94 47.5 -148.5t134.5 -54.5q88 0 137.5 55t49.5 148v684h342v-707q0 -218 -142.5 -348.5t-388.5 -130.5zM1042 1552q-13 -119 -69.5 -194.5t-161.5 -75.5q-82 0 -166 43q-84 41 -129 41q-63 0 -86 -82h-147
q7 56 23 101.5t42.5 83.5t69 59.5t96.5 21.5q77 0 164 -41t133 -41q65 0 86 84h145z" />
    <glyph glyph-name="acircumflex.sc" horiz-adv-x="1312" 
d="M-4 0l485 1153h357l479 -1153h-371l-78 209h-430l-80 -209h-362zM782 455l-129 352l-131 -352h260zM1059 1274h-266l-140 166l-139 -166h-262l254 295h303z" />
    <glyph glyph-name="fi.sc" horiz-adv-x="1658" 
d="M483 893v-213h424v-250h-422v-430h-342v1153h803v-260h-463zM1174 0v1153h342v-1153h-342z" />
    <glyph glyph-name="ldot.sc" horiz-adv-x="964" 
d="M143 0v1153h342v-866h426v-287h-768zM963 711q0 -73 -54 -123.5t-131 -50.5q-76 0 -129 51.5t-53 122.5t53 123.5t129 52.5q77 0 131 -51.5t54 -124.5z" />
    <glyph glyph-name="zero.sc" horiz-adv-x="1179" 
d="M590 -33q-98 0 -180 32t-140 88.5t-98.5 134t-60 168t-19.5 190.5q0 126 31.5 234.5t91.5 192t156.5 131.5t218.5 48t218 -48t156 -131.5t91.5 -192t31.5 -234.5t-31.5 -235.5t-91.5 -194.5t-156 -134t-218 -49zM590 887q-72 0 -112 -85t-40 -222q0 -139 39.5 -223.5
t112.5 -84.5t112 84.5t39 223.5q0 138 -39 222.5t-112 84.5z" />
    <glyph glyph-name="b.sc" horiz-adv-x="1169" 
d="M143 1153h496q414 0 414 -305q0 -85 -42 -146.5t-118 -91.5v-6q101 -22 154 -89.5t53 -176.5q0 -74 -25.5 -133t-69 -97t-104 -62.5t-126.5 -35t-142 -10.5h-490v1153zM477 481v-233h133q64 0 104 31t40 92q0 52 -36 81t-104 29h-137zM477 901v-205h119q53 0 88 28.5
t35 80.5q0 96 -127 96h-115z" />
    <glyph glyph-name="caron.cap" 
d="M711 1860l-252 -295h-301l-254 295h266l139 -166l140 166h262z" />
    <glyph glyph-name="two.sc" horiz-adv-x="1179" 
d="M154 248l440 387q94 82 94 166q0 40 -28 69t-74 29q-48 0 -83.5 -35t-43.5 -106l-324 45q20 176 154.5 279.5t314.5 103.5q67 0 130 -13t119.5 -41.5t98.5 -69.5t67 -100.5t25 -130.5q0 -109 -48.5 -195t-159.5 -179l-215 -181h428v-276h-895v248z" />
    <glyph glyph-name="dotaccent.sc" 
d="M492 1448q0 -73 -54 -123.5t-131 -50.5q-76 0 -129 51.5t-53 122.5t53 123.5t129 52.5q77 0 131 -51.5t54 -124.5z" />
    <glyph glyph-name="yen.sc" horiz-adv-x="1179" 
d="M416 0v176h-281v205h281v90h-281v205h197l-299 477h373l190 -377l186 377h365l-293 -477h164v-205h-285v-90h285v-205h-285v-176h-317z" />
    <glyph glyph-name="scedilla.sc" horiz-adv-x="1038" 
d="M752 -291q0 -56 -28 -97.5t-75 -63t-96 -31t-102 -9.5q-138 0 -244 52l55 123q80 -39 172 -39q41 0 72 15t31 52q0 33 -29 46.5t-68 13.5q-41 0 -82 -13l-63 60l115 153q-113 12 -214.5 57t-168.5 117l196 222q49 -57 120 -92t146 -35q50 0 87.5 23.5t37.5 74.5
q0 49 -46.5 74.5t-166.5 56.5q-64 16 -113.5 37.5t-98 59t-75 96.5t-26.5 137q0 98 40.5 174.5t107 121.5t143.5 68t158 23q123 0 238.5 -43t193.5 -123l-195 -211q-109 102 -227 102q-53 0 -92 -23t-39 -69q0 -45 41.5 -67.5t152.5 -49.5q55 -13 100 -29.5t92 -44.5
t79 -63.5t52.5 -89t20.5 -117.5q0 -92 -31 -163.5t-85 -116t-119 -70.5t-141 -35l-74 -96q14 2 37 2q41 0 75 -7.5t66.5 -25t51 -52.5t18.5 -85z" />
    <glyph glyph-name="cent.sc" horiz-adv-x="1179" 
d="M1139 104q-58 -58 -144.5 -91.5t-183.5 -41.5v-133h-156v133q-216 25 -346.5 173.5t-130.5 367.5q0 218 130 362t347 175v131h156v-131q99 -6 185 -38.5t141 -90.5l-170 -213q-64 67 -156 79v-553q94 9 162 80zM655 238v544q-90 -21 -139 -95t-49 -177q0 -99 50 -173.5
t138 -98.5z" />
    <glyph glyph-name="uogonek.sc" horiz-adv-x="1323" 
d="M903 -410q-110 -82 -235 -82q-59 0 -109.5 18t-86.5 62t-36 107q0 132 178 274q-224 12 -351.5 140.5t-127.5 336.5v707h342v-684q0 -94 47.5 -148.5t134.5 -54.5q88 0 137.5 55t49.5 148v684h342v-707q0 -177 -95.5 -297.5t-265.5 -160.5q-178 -142 -178 -238
q0 -32 22 -53t54 -21q56 0 113 41z" />
    <glyph glyph-name="emacron.sc" horiz-adv-x="1095" 
d="M143 0v1153h818v-260h-484v-184h457v-250h-457v-197h512v-262h-846zM895 1333h-688v176h688v-176z" />
    <glyph glyph-name="rcaron.sc" horiz-adv-x="1163" 
d="M143 0v1153h482q79 0 146.5 -11.5t126 -38t99.5 -67t64.5 -101.5t23.5 -138q0 -118 -55.5 -202.5t-152.5 -123.5l280 -471h-377l-221 410h-78v-410h-338zM481 893v-238h113q151 0 151 129q0 109 -149 109h-115zM997 1569l-252 -295h-301l-254 295h267l139 -166l139 166
h262z" />
    <glyph glyph-name="eth.sc" horiz-adv-x="1341" 
d="M600 0h-457v481h-127v215h127v457h447q109 0 204 -17.5t182.5 -59t149.5 -106t99 -164t37 -226.5q0 -117 -36.5 -214.5t-98.5 -164t-147 -113t-180.5 -67.5t-199.5 -21zM483 885v-189h203v-215h-203v-211h86q72 0 129.5 16t104.5 51t72.5 97t25.5 148q0 160 -88.5 231.5
t-237.5 71.5h-92z" />
    <glyph glyph-name="ampersand.sc" horiz-adv-x="1419" 
d="M1366 608l-299 -321l289 -287h-406l-78 82q-74 -59 -155 -87t-193 -28q-197 0 -314.5 96t-117.5 263q0 110 57.5 185t172.5 138q-101 101 -101 225q0 135 107 223.5t282 88.5q169 0 271 -82.5t102 -220.5q0 -186 -217 -297l104 -107l99 129h397zM678 276l-174 185
q-39 -15 -61.5 -48t-22.5 -77q0 -51 37 -82t86 -31q82 0 135 53zM610 944q-32 0 -55 -22t-23 -54q0 -50 58 -108q100 43 100 108q0 32 -23 54t-57 22z" />
    <glyph glyph-name="eight.onum" horiz-adv-x="1329" 
d="M1210 408q0 -110 -45 -197t-122 -140.5t-173 -81.5t-204 -28t-205 28t-174 81t-122.5 140t-45.5 196q0 126 71.5 219t186.5 133v4q-98 35 -159.5 118.5t-61.5 196.5q0 99 42 178.5t113.5 130t162.5 77t192 26.5q100 0 190 -26.5t162 -76t114 -129t42 -178.5
q0 -114 -61 -198t-161 -117v-6q113 -35 185.5 -129.5t72.5 -220.5zM666 1223q-77 0 -127 -49t-50 -121q0 -71 50.5 -121.5t126.5 -50.5q74 0 125 51t51 121q0 71 -50.5 120.5t-125.5 49.5zM868 426q0 85 -55.5 141t-146.5 56q-92 0 -148.5 -56t-56.5 -141t56.5 -140
t148.5 -55q91 0 146.5 55t55.5 140z" />
    <glyph glyph-name="ncaron.sc" horiz-adv-x="1376" 
d="M143 0v1153h377l389 -661h4l-10 661h330v-1153h-373l-391 653h-6l8 -653h-328zM1092 1569l-252 -295h-301l-254 295h266l139 -166l139 166h263z" />
    <glyph glyph-name="x.sc" horiz-adv-x="1249" 
d="M836 0l-220 354l-215 -354h-401l406 608l-369 545h403l185 -311l184 311h387l-365 -545l418 -608h-413z" />
    <glyph glyph-name="breve.sc" 
d="M664 1569q-13 -152 -109.5 -223.5t-249.5 -71.5q-151 0 -247.5 71.5t-106.5 223.5h172q18 -113 184 -113q79 0 126 23.5t59 89.5h172z" />
    <glyph glyph-name="fl.sc" horiz-adv-x="1994" 
d="M483 893v-213h424v-250h-422v-430h-342v1153h803v-260h-463zM1174 0v1153h342v-866h426v-287h-768z" />
    <glyph glyph-name="dcaron.sc" horiz-adv-x="1341" 
d="M600 0h-457v1153h447q109 0 204 -17.5t182.5 -59t149.5 -106t99 -164t37 -226.5q0 -117 -36.5 -214.5t-98.5 -164t-147 -113t-180.5 -67.5t-199.5 -21zM483 885v-613h86q72 0 129.5 16t104.5 51t72.5 97t25.5 148q0 160 -88.5 230.5t-237.5 70.5h-92zM1032 1569
l-252 -295h-301l-254 295h267l139 -166l139 166h262z" />
    <glyph glyph-name="agrave.sc" horiz-adv-x="1312" 
d="M-4 0l485 1153h357l479 -1153h-371l-78 209h-430l-80 -209h-362zM782 455l-129 352l-131 -352h260zM807 1274h-254l-299 295h340z" />
    <glyph glyph-name="rcommaaccent.sc" horiz-adv-x="1163" 
d="M143 0v1153h482q79 0 146.5 -11.5t126 -38t99.5 -67t64.5 -101.5t23.5 -138q0 -118 -55.5 -202.5t-152.5 -123.5l280 -471h-377l-221 410h-78v-410h-338zM481 893v-238h113q151 0 151 129q0 109 -149 109h-115zM762 -92l-176 -400h-258l137 400h297z" />
    <glyph glyph-name="u.sc" horiz-adv-x="1323" 
d="M657 -33q-243 0 -382.5 130t-139.5 349v707h342v-684q0 -94 47.5 -148.5t134.5 -54.5q88 0 137.5 55t49.5 148v684h342v-707q0 -218 -142.5 -348.5t-388.5 -130.5z" />
    <glyph glyph-name="uacute.sc" horiz-adv-x="1323" 
d="M657 -33q-243 0 -382.5 130t-139.5 349v707h342v-684q0 -94 47.5 -148.5t134.5 -54.5q88 0 137.5 55t49.5 148v684h342v-707q0 -218 -142.5 -348.5t-388.5 -130.5zM1053 1569l-299 -295h-254l213 295h340z" />
    <glyph glyph-name="zero.onum" horiz-adv-x="1478" 
d="M1378 584q0 -139 -50.5 -256t-137 -196t-204 -123t-249.5 -44q-130 0 -246 44t-202 123t-136.5 196t-50.5 256t50.5 255t136.5 193t202 119.5t246 42.5q178 0 322.5 -72.5t231.5 -213t87 -324.5zM1036 584q0 133 -83 223t-216 90q-131 0 -213 -90t-82 -223
q0 -136 82 -227t213 -91q134 0 216.5 91t82.5 227z" />
    <glyph glyph-name="eacute.sc" horiz-adv-x="1095" 
d="M143 0v1153h818v-260h-484v-184h457v-250h-457v-197h512v-262h-846zM958 1569l-299 -295h-253l212 295h340z" />
    <glyph glyph-name="dotlessj" horiz-adv-x="612" 
d="M477 -27q0 -81 -10.5 -146t-38 -126t-72.5 -102.5t-117.5 -66t-168.5 -24.5q-83 0 -146 17l23 280q31 -10 71 -10q69 0 96 46t27 132v1047h336v-1047z" />
    <glyph glyph-name="eight.sc" horiz-adv-x="1179" 
d="M590 940q-48 0 -79.5 -31t-31.5 -80t30.5 -79.5t80.5 -30.5q48 0 79 30.5t31 79.5t-31.5 80t-78.5 31zM590 477q-58 0 -94.5 -35.5t-36.5 -93.5q0 -59 36.5 -94t94.5 -35q57 0 94 35t37 94q0 58 -37.5 93.5t-93.5 35.5zM864 608v-6q94 -36 145.5 -105.5t51.5 -164.5
q0 -119 -65 -203t-169.5 -123t-236.5 -39t-236 38.5t-169.5 122.5t-65.5 204q0 94 52 164t144 106v6q-77 32 -120 95.5t-43 144.5q0 159 124 248.5t314 89.5q191 0 314.5 -87t123.5 -245q0 -87 -42.5 -150t-121.5 -96z" />
    <glyph glyph-name="dieresis.sc" 
d="M686 1552q-13 -119 -69.5 -194.5t-161.5 -75.5q-82 0 -166 43q-84 41 -129 41q-63 0 -86 -82h-148q7 56 23 101.5t43 83.5t69.5 59.5t96.5 21.5q77 0 164 -41t133 -41q65 0 86 84h145z" />
    <glyph glyph-name="edieresis.sc" horiz-adv-x="1095" 
d="M143 0v1153h818v-260h-484v-184h457v-250h-457v-197h512v-262h-846zM940 1450q0 -70 -50 -119t-120 -49q-72 0 -121 49t-49 119q0 67 49.5 116.5t120.5 49.5q69 0 119.5 -48.5t50.5 -117.5zM496 1450q0 -70 -50.5 -119t-121.5 -49q-70 0 -120 49.5t-50 118.5
q0 67 50 116.5t120 49.5q71 0 121.5 -48.5t50.5 -117.5z" />
    <glyph glyph-name="caron.alt" 
d="M575 1450l-176 -399h-258l138 399h296z" />
    <glyph glyph-name="amacron.sc" horiz-adv-x="1312" 
d="M-4 0l485 1153h357l479 -1153h-371l-78 209h-430l-80 -209h-362zM782 455l-129 352l-131 -352h260zM999 1333h-688v176h688v-176z" />
    <glyph glyph-name="ccircumflex.sc" horiz-adv-x="1183" 
d="M1151 1026l-209 -242q-36 48 -96.5 74.5t-124.5 26.5q-122 0 -200.5 -90t-78.5 -217q0 -128 79 -217t206 -89q66 0 125.5 24t97.5 73l201 -248q-75 -73 -188.5 -113.5t-241.5 -40.5q-135 0 -252 42.5t-203.5 119.5t-136 193t-49.5 256q0 136 50 251t136 192.5t203 121
t250 43.5q123 0 241.5 -44t190.5 -116zM1120 1274h-266l-139 166l-140 -166h-262l254 295h303z" />
    <glyph glyph-name="g.sc" horiz-adv-x="1320" 
d="M733 -33q-190 0 -337 72.5t-231.5 212.5t-84.5 328q0 180 87 319.5t235 213t331 73.5q288 0 467 -152l-221 -252q-95 109 -240 109q-130 0 -213.5 -86t-83.5 -227q0 -146 82 -231t219 -85q87 0 146 23v155h-205v242h524v-604q-217 -111 -475 -111z" />
    <glyph glyph-name="ecaron.sc" horiz-adv-x="1095" 
d="M143 0v1153h818v-260h-484v-184h457v-250h-457v-197h512v-262h-846zM958 1569l-251 -295h-301l-254 295h266l139 -166l139 166h262z" />
    <glyph glyph-name="eogonek.sc" horiz-adv-x="1095" 
d="M143 0v1153h818v-260h-484v-184h457v-250h-457v-197h512v-262h-47q-194 -154 -194 -250q0 -32 21.5 -53t53.5 -21q56 0 113 41l65 -127q-110 -82 -235 -82q-59 0 -109.5 18t-86 62t-35.5 107q0 82 65 161t156 144h-613z" />
    <glyph glyph-name="lcommaaccent.sc" horiz-adv-x="964" 
d="M143 0v1153h342v-866h426v-287h-768zM674 -92l-176 -400h-258l137 400h297z" />
    <glyph glyph-name="ae.sc" horiz-adv-x="1826" 
d="M874 0v229h-362l-131 -229h-391l674 1153h1028v-260h-484v-184h457v-250h-457v-197h512v-262h-846zM860 881l-227 -406h241v406h-14z" />
    <glyph glyph-name="ccaron.sc" horiz-adv-x="1183" 
d="M1151 1026l-209 -242q-36 48 -96.5 74.5t-124.5 26.5q-122 0 -200.5 -90t-78.5 -217q0 -128 79 -217t206 -89q66 0 125.5 24t97.5 73l201 -248q-75 -73 -188.5 -113.5t-241.5 -40.5q-135 0 -252 42.5t-203.5 119.5t-136 193t-49.5 256q0 136 50 251t136 192.5t203 121
t250 43.5q123 0 241.5 -44t190.5 -116zM1122 1569l-252 -295h-301l-254 295h267l139 -166l139 166h262z" />
    <glyph glyph-name="v.sc" horiz-adv-x="1206" 
d="M430 0l-438 1153h370l242 -739h8l240 739h362l-446 -1153h-338z" />
    <glyph glyph-name="thorn.sc" horiz-adv-x="1138" 
d="M143 0v1153h342v-147h154q231 0 343 -98.5t112 -276.5q0 -182 -124 -283.5t-339 -101.5h-146v-246h-342zM485 508h105q160 0 160 121q0 116 -156 116h-109v-237z" />
    <glyph glyph-name="ring.cap" 
d="M530 1753q0 -94 -65 -156.5t-158 -62.5t-158 62t-65 155q0 95 64.5 158t158.5 63q93 0 158 -63t65 -156zM428 1753q0 51 -35 85t-86 34q-52 0 -86.5 -35t-34.5 -86q0 -49 35 -83t86 -34t86 34t35 85z" />
    <glyph glyph-name="e.sc" horiz-adv-x="1095" 
d="M143 0v1153h818v-260h-484v-184h457v-250h-457v-197h512v-262h-846z" />
    <glyph glyph-name="abreve.sc" horiz-adv-x="1312" 
d="M-4 0l485 1153h357l479 -1153h-371l-78 209h-430l-80 -209h-362zM782 455l-129 352l-131 -352h260zM1012 1569q-13 -152 -109.5 -223.5t-249.5 -71.5q-151 0 -247.5 71.5t-106.5 223.5h172q18 -113 184 -113q79 0 126 23.5t59 89.5h172z" />
    <glyph glyph-name="adieresis.sc" horiz-adv-x="1312" 
d="M-4 0l485 1153h357l479 -1153h-371l-78 209h-430l-80 -209h-362zM782 455l-129 352l-131 -352h260zM1049 1450q0 -70 -50 -119t-120 -49q-71 0 -120.5 49t-49.5 119q0 67 49.5 116.5t120.5 49.5q69 0 119.5 -48.5t50.5 -117.5zM604 1450q0 -70 -50.5 -119t-121.5 -49
q-70 0 -120 49.5t-50 118.5q0 67 50 116.5t120 49.5q71 0 121.5 -48.5t50.5 -117.5z" />
    <glyph glyph-name="five.sc" horiz-adv-x="1179" 
d="M1049 383q0 -102 -36 -182.5t-100 -131t-148 -76.5t-183 -26q-179 0 -299 77.5t-172 231.5l309 95q22 -63 63 -94t90 -31q62 0 99 35.5t37 91.5q0 79 -51.5 116t-135.5 37q-60 0 -152.5 -17t-160.5 -42l29 686h751v-260h-448l-11 -145q50 12 117 12q181 0 291.5 -98
t110.5 -279z" />
    <glyph glyph-name="ecircumflex.sc" horiz-adv-x="1095" 
d="M143 0v1153h818v-260h-484v-184h457v-250h-457v-197h512v-262h-846zM950 1274h-266l-139 166l-139 -166h-263l254 295h303z" />
    <glyph glyph-name="circumflex.cap" 
d="M711 1565h-267l-139 166l-139 -166h-262l254 295h303z" />
    <glyph glyph-name="commaaccent" 
d="M481 -92l-176 -400h-258l137 400h297z" />
    <glyph glyph-name="cacute.sc" horiz-adv-x="1183" 
d="M1151 1026l-209 -242q-36 48 -96.5 74.5t-124.5 26.5q-122 0 -200.5 -90t-78.5 -217q0 -128 79 -217t206 -89q66 0 125.5 24t97.5 73l201 -248q-75 -73 -188.5 -113.5t-241.5 -40.5q-135 0 -252 42.5t-203.5 119.5t-136 193t-49.5 256q0 136 50 251t136 192.5t203 121
t250 43.5q123 0 241.5 -44t190.5 -116zM1055 1569l-299 -295h-254l213 295h340z" />
    <glyph glyph-name="breve.cap" 
d="M664 1860q-13 -152 -109.5 -223.5t-249.5 -71.5q-151 0 -247.5 71.5t-106.5 223.5h172q18 -113 184 -113q79 0 126 23.5t59 89.5h172z" />
    <glyph glyph-name="edotaccent.sc" horiz-adv-x="1095" 
d="M143 0v1153h818v-260h-484v-184h457v-250h-457v-197h512v-262h-846zM739 1448q0 -73 -53.5 -123.5t-130.5 -50.5q-76 0 -129 51.5t-53 122.5t53 123.5t129 52.5q77 0 130.5 -51.5t53.5 -124.5z" />
    <glyph glyph-name="six.sc" horiz-adv-x="1179" 
d="M602 758l4 -4q29 10 72 10q176 0 285.5 -95.5t109.5 -273.5q0 -193 -136.5 -310.5t-348.5 -117.5q-213 0 -349.5 118.5t-136.5 315.5q0 99 40.5 195.5t113.5 204.5l233 352h410zM588 539q-63 0 -105 -41t-43 -109q-1 -67 41.5 -106t106.5 -39q62 0 104.5 39t42.5 106
t-42.5 108.5t-104.5 41.5z" />
    <glyph glyph-name="egrave.sc" horiz-adv-x="1095" 
d="M143 0v1153h818v-260h-484v-184h457v-250h-457v-197h512v-262h-846zM721 1274h-254l-299 295h340z" />
    <glyph glyph-name="c.sc" horiz-adv-x="1183" 
d="M1151 1026l-209 -242q-36 48 -96.5 74.5t-124.5 26.5q-122 0 -200.5 -90t-78.5 -217q0 -128 79 -217t206 -89q66 0 125.5 24t97.5 73l201 -248q-75 -73 -188.5 -113.5t-241.5 -40.5q-135 0 -252 42.5t-203.5 119.5t-136 193t-49.5 256q0 136 50 251t136 192.5t203 121
t250 43.5q123 0 241.5 -44t190.5 -116z" />
    <glyph glyph-name="circumflex.sc" 
d="M711 1274h-267l-139 166l-139 -166h-262l254 295h303z" />
    <glyph glyph-name="t.sc" horiz-adv-x="989" 
d="M666 870v-870h-342v870h-314v283h969v-283h-313z" />
    <glyph glyph-name="dieresis.cap" 
d="M700 1741q0 -70 -50 -119t-120 -49q-72 0 -121 49.5t-49 118.5q0 67 49.5 116.5t120.5 49.5q69 0 119.5 -48.5t50.5 -117.5zM256 1741q0 -70 -50.5 -119t-121.5 -49q-70 0 -120 49.5t-50 118.5q0 67 50 116.5t120 49.5q71 0 121.5 -48.5t50.5 -117.5z" />
    <glyph glyph-name="sacute.sc" horiz-adv-x="1038" 
d="M969 1020l-195 -211q-109 102 -227 102q-53 0 -92 -23t-39 -69q0 -45 41.5 -67.5t152.5 -49.5q55 -13 100 -29.5t92 -44.5t79 -63.5t52.5 -89t20.5 -117.5q0 -84 -27 -152t-71.5 -111.5t-105 -73t-124 -42t-132.5 -12.5q-135 0 -260.5 46.5t-206.5 131.5l196 222
q49 -57 120 -92t146 -35q50 0 87.5 23.5t37.5 74.5q0 49 -46.5 74.5t-166.5 56.5q-64 16 -113.5 37.5t-98 59t-75 96.5t-26.5 137q0 98 40.5 174.5t107 121.5t143.5 68t158 23q123 0 238.5 -43t193.5 -123zM903 1569l-299 -295h-254l213 295h340z" />
    <glyph glyph-name="caron.sc" 
d="M711 1569l-252 -295h-301l-254 295h266l139 -166l140 166h262z" />
    <glyph glyph-name="d.sc" horiz-adv-x="1341" 
d="M600 0h-457v1153h447q109 0 204 -17.5t182.5 -59t149.5 -106t99 -164t37 -226.5q0 -117 -36.5 -214.5t-98.5 -164t-147 -113t-180.5 -67.5t-199.5 -21zM483 885v-613h86q72 0 129.5 16t104.5 51t72.5 97t25.5 148q0 160 -88.5 230.5t-237.5 70.5h-92z" />
    <glyph glyph-name="cdotaccent.sc" horiz-adv-x="1183" 
d="M1151 1026l-209 -242q-36 48 -96.5 74.5t-124.5 26.5q-122 0 -200.5 -90t-78.5 -217q0 -128 79 -217t206 -89q66 0 125.5 24t97.5 73l201 -248q-75 -73 -188.5 -113.5t-241.5 -40.5q-135 0 -252 42.5t-203.5 119.5t-136 193t-49.5 256q0 136 50 251t136 192.5t203 121
t250 43.5q123 0 241.5 -44t190.5 -116zM903 1448q0 -73 -53.5 -123.5t-130.5 -50.5q-76 0 -129 51.5t-53 122.5t53 123.5t129 52.5q77 0 130.5 -51.5t53.5 -124.5z" />
    <glyph glyph-name="f.sc" horiz-adv-x="1030" 
d="M483 893v-213h424v-250h-422v-430h-342v1153h803v-260h-463z" />
    <glyph glyph-name="commaaccent.alt" 
d="M115 1171l176 400h258l-137 -400h-297z" />
    <glyph glyph-name="tcaron.sc" horiz-adv-x="989" 
d="M666 870v-870h-342v870h-314v283h969v-283h-313zM899 1569l-252 -295h-301l-254 295h266l140 -166l139 166h262z" />
    <glyph glyph-name="gdotaccent.sc" horiz-adv-x="1320" 
d="M733 -33q-190 0 -337 72.5t-231.5 212.5t-84.5 328q0 180 87 319.5t235 213t331 73.5q288 0 467 -152l-221 -252q-95 109 -240 109q-130 0 -213.5 -86t-83.5 -227q0 -146 82 -231t219 -85q87 0 146 23v155h-205v242h524v-604q-217 -111 -475 -111zM924 1448
q0 -73 -54 -123.5t-131 -50.5q-76 0 -129 51.5t-53 122.5t53 123.5t129 52.5q77 0 131 -51.5t54 -124.5z" />
    <glyph glyph-name="gcommaaccent.sc" horiz-adv-x="1320" 
d="M733 -33q-190 0 -337 72.5t-231.5 212.5t-84.5 328q0 180 87 319.5t235 213t331 73.5q288 0 467 -152l-221 -252q-95 109 -240 109q-130 0 -213.5 -86t-83.5 -227q0 -146 82 -231t219 -85q87 0 146 23v155h-205v242h524v-604q-217 -111 -475 -111zM856 -92l-176 -400
h-258l137 400h297z" />
    <glyph glyph-name="gcircumflex.sc" horiz-adv-x="1320" 
d="M733 -33q-190 0 -337 72.5t-231.5 212.5t-84.5 328q0 180 87 319.5t235 213t331 73.5q288 0 467 -152l-221 -252q-95 109 -240 109q-130 0 -213.5 -86t-83.5 -227q0 -146 82 -231t219 -85q87 0 146 23v155h-205v242h524v-604q-217 -111 -475 -111zM1141 1274h-267
l-139 166l-139 -166h-262l254 295h303z" />
    </font>
</defs>
</svg>
